img image001 image001 image001 image001 image001 image001 image001 image001 image001 image001 image001 image001 image001 image001 image001

Planets Sun Sun Sun
Статистика раздачи
Автор: Nickolas3434 | Размер: 744.23 МБ | Добавлен: 25 июн 2015
Раздают: 54    Качают: 2
Скачать торрент
Скачать торрент
Описание торрента

СообщениеДобавлено: 25 июн 2015 


Информация о фильме
Название: Идеальное убийство
Год выхода: 2013
Жанр: детектив
Режиссер: Андрей Хрулев
В ролях: Валерий Николаев, Светлана Иванова, Антонина Дивина, Антон Яковлев (III), Алексей Лонгин, Александр Горелов (II)
О фильме:
Ольга хотела быть счастливой. И у ее счастья есть совершенно четкие определения: успешный муж, полный достаток в доме, дорогая одежда, возможность путешествовать и ни от кого не зависеть. В ее детском доме все было по-другому и его воспитанникам оставалось только мечтать. Каждый о своем, а ей уже давно удалось вывести свою формулу счастья. Она стремилась к нему, и она его получила... Известный адвокат Сергей Арзамасов берется за бракоразводное дело Ольги Лавровой, которая ежедневно подвергается насилию со стороны своего супруга Игоря и которую тот жестоко избивает. И первый раз в жизни он идет вопреки сложившимся этическим и профессиональным принципам, бросается в водоворот своих желаний. Она ведь так интересна, так многогранна и беззащитна. Их бурный роман вспыхивает как пламя, которое уже не загасить. Однажды любовников застает муж Ольги, и между ним и Сергеем завязывается драка. Пытаясь защитить Арзамасова, Ольга убивает мужа. Теперь Сергею предстоит защищать Ольгу в суде.

Страна: Россия
Студия: Star Media
Продолжительность: 01:26:01
Перевод: Не требуется
Файл
Кодек: AVI (XviD)
Качество: HDTVRip
Видео: 656x368 (1.78:1), 25 fps, XviD build 73 ~1072 kbps avg, 0.18 bit/pixel
Звук: 48 kHz, MPEG Layer 3, 2 ch, ~128.00 kbps avg
Субтитры: нет
Семпл
Общее
Полное имя : S:Идеальное убийство. 2013. HDTVRip (AleksSin).avi
Формат : AVI
Формат/Информация : Audio Video Interleave
Размер файла : 744 Мбайт
Продолжительность : 1 ч. 26 м.
Общий поток : 1209 Кбит/сек
Программа кодирования : VirtualDubMod 1.5.10.3 | www.virtualdub-fr.org || (build 2550/release)
Библиотека кодирования : VirtualDubMod build 2550/release
Видео
Идентификатор : 0
Формат : MPEG-4 Visual
Профиль формата : Advanced Simple@L5
Параметр BVOP формата : 1
Параметр QPel формата : Нет
Параметр GMC формата : Без точки перехода
Параметр матрицы формата : Выборочная
Идентификатор кодека : XVID
Идентификатор кодека/Подсказка : XviD
Продолжительность : 1 ч. 26 м.
Битрейт : 1072 Кбит/сек
Ширина : 656 пикселей
Высота : 368 пикселей
Соотношение сторон : 16:9
Частота кадров : 25,000 кадров/сек
Цветовое пространство : YUV
Субдискретизация насыщенности : 4:2:0
Битовая глубина : 8 бит
Тип развёртки : Прогрессивная
Метод сжатия : С потерями
Бит/(Пиксели*Кадры) : 0.178
Размер потока : 659 Мбайт (89%)
Библиотека кодирования : XviD 73
Аудио
Идентификатор : 1
Формат : MPEG Audio
Версия формата : Version 1
Профиль формата : Layer 3
Идентификатор кодека : 55
Идентификатор кодека/Подсказка : MP3
Продолжительность : 1 ч. 26 м.
Вид битрейта : Постоянный
Битрейт : 128 Кбит/сек
Каналы : 2 канала
Частота : 48,0 КГц
Метод сжатия : С потерями
Размер потока : 78,8 Мбайт (11%)
Выравнивание : Соединение по промежуткам
Продолжительность промежутка : 40 мс. (1,00 видеокадр)
Время предзагрузки промежутка : 504 мс.
Библиотека кодирования : LAME3.99r
Настройки программы : -m s -V 4 -q 2 -lowpass 17 -b 128


Релиз от:



   Похожие торренты   Торрент   Размер 
В этой теме нет новых непрочитанных сообщений. Идеальное убийство (2013) HDTVRip от Files-x

86 | 11

1.37 ГБ

В этой теме нет новых непрочитанных сообщений. Идеальное убийство (2013) HDTVRip-AVC от Files-x

92 | 8

1.37 ГБ

В этой теме нет новых непрочитанных сообщений. Идеальное убийство (2013) HDTVRip 720p от MediaClub

100 | 8

2.43 ГБ

В этой теме нет новых непрочитанных сообщений. Идеальное убийство (2013) SATRip

100 | 16

1.99 ГБ

В этой теме нет новых непрочитанных сообщений. Идеальное убийство (2013) SATRip от Машуни

23 | 2

700 МБ

В этой теме нет новых непрочитанных сообщений. Идеальное убийство (2013) HDTV 1080i от MediaClub

63 | 14

4.05 ГБ

В этой теме нет новых непрочитанных сообщений. Идеальное убийство (2010) SATRip от Pshichko66

22 | 4

1.97 ГБ




Вы не можете начинать темы
Вы не можете отвечать на сообщения
Вы не можете редактировать свои сообщения
Вы не можете удалять свои сообщения
Вы не можете добавлять вложения

Перейти:  
Для Мосгорсуда, Роскомнадзора и рекламодателей: mosgorsud-torrent[собачка]yandex.ru
 Вход
ppkBB3cker v.2 © 2008-2014 @ PPK
[ Time : 0.116s | 14 Queries | GZIP : Off ]

Торрент трекер RUTOR.IN, Не можете зайти на rutor.org? Какой новый адрес рутор? Какое зеркало рутор? Не работает rutor.org и зеркала? Тогда наш торрент специально для вас. Rutor.in неофициальное зеркало rutor. В случае если у Вас заблокирован rutor или вдруг Вы не можете на него зайти, то Вы без труда сможете скачать бесплатно и без рекламы последние новинки кино, игр, сериалов и прочего у нас, на Rutor.in. Не нужно использовать прокси, чтобы зайти на рутор, достаточно воспользоваться нашим ресурсом. Все новые фильмы, игры, сериалы, книги и музыка за 2013 и 2014 годы через торрент бесплатно. Скачивайте фильмы в хорошем качестве, игры для пк, xbox, playstation без регистрации. У нас вы найдете новые Зарубежные сериалы и Русские сериалы 2013, 2014, 2015 годов. Оставайтесь с нами, качайте любимые фильмы, игры, сериалы, книги и музыку.