img image001 image001 image001 image001 image001 image001 image001 image001 image001 image001 image001 image001 image001 image001 image001

Planets Sun Sun Sun
Статистика раздачи
Автор: Nickolas3434 | Размер: 5.69 ГБ | Добавлен: 28 июн 2015
Раздают: 612    Качают: 27
Скачать торрент
Скачать торрент
Описание торрента

СообщениеДобавлено: 28 июн 2015 

Информация о фильме
Название: Единичка
Год выхода: 2015
Жанр: военный, драма
Режиссер: Кирилл Белевич
В ролях: Андрей Мерзликин, Илья Коробко, Анна Прус, Арина Борисова, Александр Вершинин, Михаил Евланов, Микаэл Джанибекян, Сергей Габриэлян, Добрыня Белевич-Оболенский, Якуб Здруйковский
О фильме:
Август 1944-го. Советские войска продолжают наступление в Восточной Польше. Подразделение старшего лейтенанта Егорова получает задание — удержать мост, через который планируется переправа частей Советской Армии. Прибыв на позицию, бойцы обнаруживают разрушенный монастырь, а в нем — группу глухих сирот с воспитательницей Евой.
Утратив веру, она нашла смысл жизни в спасении немощных и беззащитных детей. Лейтенант Егоров оказывается перед сложным выбором — выполняя приказ командования, он будет вынужден поставить под угрозу жизнь маленьких поляков. Артиллеристы изо всех сил стараются не допустить смерти детей…



Страна: Россия
Студия: Марс Медиа Энтертейнмент
Продолжительность: 105 мин. / 01:45
Перевод: не требуется

Файл
Кодек: MPEG2
Качество: DVD9 "CP Дистрибуция"
Видео: PAL 16:9 (720x576@1024x576) VBR 6976 Kbps, 25.000 fps
Аудио: Dolby AC3, 6 ch, 48.0 KHz, 448 Кbps
Субтитры: отсутствуют

Общее
Полное имя : E:Ediniсhka.2015.DVD9VIDEO_TSVTS_04_1.VOB
Формат : MPEG-PS
Размер файла : 1024 Мбайт
Продолжительность : 18 м.
Режим общего битрейта : Переменный
Общий поток : 7575 Кбит/сек
Видео
Идентификатор : 224 (0xE0)
Формат : MPEG Video
Версия формата : Version 2
Профиль формата : Main@Main
Параметр BVOP формата : Да
Параметр матрицы формата : По умолчанию
Параметр GOP формата : M=3, N=12
Продолжительность : 18 м.
Вид битрейта : Переменный
Битрейт : 6976 Кбит/сек
Максимальный битрейт : 9000 Кбит/сек
Ширина : 720 пикселей
Высота : 576 пикселей
Соотношение сторон : 16:9
Частота кадров : 25,000 кадров/сек
Стандарт вещания : PAL
Цветовое пространство : YUV
Субдискретизация насыщенности : 4:2:0
Битовая глубина : 8 бит
Тип развёртки : Прогрессивная
Метод сжатия : С потерями
Бит/(Пиксели*Кадры) : 0.673
Временной код первого кадра : 00:00:00:00
Оригинал временного кода : Group of pictures header
GOP, открыто/закрыто : Открыто
GOP, открыто/закрыто на первом кадре : Закрыто
Размер потока : 943 Мбайт (92%)
Аудио
Идентификатор : 189 (0xBD)-128 (0x80)
Формат : AC-3
Формат/Информация : Audio Coding 3
Расширение режима : CM (complete main)
Параметр Endianness формата : Big
Режим смешивания : DVD-Video
Продолжительность : 18 м.
Вид битрейта : Постоянный
Битрейт : 448 Кбит/сек
Каналы : 6 каналов
Расположение каналов : Front: L C R, Side: L R, LFE
Частота : 48,0 КГц
Метод сжатия : С потерями
Размер потока : 60,5 Мбайт (6%)
Меню




   Похожие торренты   Торрент   Размер 
В этой теме нет новых непрочитанных сообщений. Единичка (2015) DVDRip | Лицензия

14533 | 384

1.45 ГБ

В этой теме нет новых непрочитанных сообщений. Единичка (2015) DVDRip | Лицензия

1319 | 38

744.06 МБ

В этой теме нет новых непрочитанных сообщений. Единичка (2015) DVDRip-AVC | Лицензия

767 | 26

1.37 ГБ

В этой теме нет новых непрочитанных сообщений. Единичка (2015) DVDRip-AVC | Лицензия

501 | 5

2.43 ГБ

В этой теме нет новых непрочитанных сообщений. Единичка (2015) DVDRip | Лицензия

0 | 160

1.37 ГБ

В этой теме нет новых непрочитанных сообщений. Единичка (2015) WEB-DLRip от Scarabey | Лицензия

3882 | 174

1.45 ГБ

В этой теме нет новых непрочитанных сообщений. Единичка (2015) DVDRip от Scarabey | Лицензия

950 | 34

746.05 МБ




Вы не можете начинать темы
Вы не можете отвечать на сообщения
Вы не можете редактировать свои сообщения
Вы не можете удалять свои сообщения
Вы не можете добавлять вложения

Перейти:  
Для Мосгорсуда, Роскомнадзора и рекламодателей: mosgorsud-torrent[собачка]yandex.ru
 Вход
ppkBB3cker v.2 © 2008-2014 @ PPK
[ Time : 0.030s | 15 Queries | GZIP : Off ]

Торрент трекер RUTOR.IN, Не можете зайти на rutor.org? Какой новый адрес рутор? Какое зеркало рутор? Не работает rutor.org и зеркала? Тогда наш торрент специально для вас. Rutor.in неофициальное зеркало rutor. В случае если у Вас заблокирован rutor или вдруг Вы не можете на него зайти, то Вы без труда сможете скачать бесплатно и без рекламы последние новинки кино, игр, сериалов и прочего у нас, на Rutor.in. Не нужно использовать прокси, чтобы зайти на рутор, достаточно воспользоваться нашим ресурсом. Все новые фильмы, игры, сериалы, книги и музыка за 2013 и 2014 годы через торрент бесплатно. Скачивайте фильмы в хорошем качестве, игры для пк, xbox, playstation без регистрации. У нас вы найдете новые Зарубежные сериалы и Русские сериалы 2013, 2014, 2015 годов. Оставайтесь с нами, качайте любимые фильмы, игры, сериалы, книги и музыку.