img image001 image001 image001 image001 image001 image001 image001 image001 image001 image001 image001 image001 image001 image001 image001

Planets Sun Sun Sun
Статистика раздачи
Автор: Nickolas3434 | Размер: 743.16 МБ | Добавлен: 30 июн 2015
Раздают: 20    Качают: 30
Скачать торрент
Скачать торрент
Описание торрента

СообщениеДобавлено: 30 июн 2015 

Страна: СССР
Производство: Беларусьфильм
Жанр: комедия
Год выпуска: 1947
Продолжительность: 01:13:54
Перевод: Не требуется
Cубтитры: нет
Оригинальная аудиодорожка: русский
Режиссер: Владимир Корш-Саблин
В ролях:
Виктор Хохряков, Евгений Самойлов, Лидия Смирнова, И.Оя, Леонид Кмит, Константин Сорокин, Николай Черкасов, Николай Боголюбов, Борис Рунге, Владимир Дедюшко, Татьяна Барышева, Елена Сипавина, Людмила Шабалина, Борис Жуковский, В.Цветков...
Описание:
Председатель колхоза Мария Степановна, бывшая партизанка, углядев пустующий участок, решает расширить за счет него посевные площади. Этот же участок приглянулся председателю соседнего колхоза — старому партизану Вишняку, который мечтал выстроить на этой земле добротные дома из кирпича. Спор председателей решает вернувшийся в родную деревню гвардии капитан саперных войск Иван Вишняк, которому сразу же приглянулась Мария Степановна и который намерен жить с будущей женой в новом кирпичном доме при хороших урожаях.





Источник: DVD5 R5
Качество видео: DVDRip
Формат видео: AVI
Видео: 688x512 (4:3), 25 fps, XviD ~ 1268 kbps avg, 0.144 bit/pixel
Аудио: 48 kHz, MP3 2.0, 128 kbps
Раздача от:
Общее
Полное имя : Novyy.dom.1947.DVDRip-745_[New-team]_by_AVP_Studio.avi
Формат : AVI
Формат/Информация : Audio Video Interleave
Размер файла : 743 Мбайт
Продолжительность : 1 ч. 13 м.
Общий поток : 1406 Кбит/сек
Программа кодирования : VirtualDubModRus 1.5.10.2 (build 2542/release)
Библиотека кодирования : VirtualDubMod build 2542/release
Видео
Идентификатор : 0
Формат : MPEG-4 Visual
Профиль формата : Advanced Simple@L5
Параметр BVOP формата : 1
Параметр QPel формата : Нет
Параметр GMC формата : Без точки перехода
Параметр матрицы формата : Выборочная
Идентификатор кодека : XVID
Идентификатор кодека/Подсказка : XviD
Продолжительность : 1 ч. 13 м.
Битрейт : 1268 Кбит/сек
Ширина : 688 пикселей
Высота : 512 пикселей
Соотношение сторон : 4:3
Частота кадров : 25,000 кадров/сек
Цветовое пространство : YUV
Субдискретизация насыщенности : 4:2:0
Битовая глубина : 8 бит
Тип развёртки : Прогрессивная
Метод сжатия : С потерями
Бит/(Пиксели*Кадры) : 0.144
Размер потока : 670 Мбайт (90%)
Библиотека кодирования : XviD 73
Аудио
Идентификатор : 1
Формат : MPEG Audio
Версия формата : Version 1
Профиль формата : Layer 3
Идентификатор кодека : 55
Идентификатор кодека/Подсказка : MP3
Продолжительность : 1 ч. 13 м.
Вид битрейта : Постоянный
Битрейт : 128 Кбит/сек
Каналы : 2 канала
Частота : 48,0 КГц
Метод сжатия : С потерями
Размер потока : 67,7 Мбайт (9%)
Выравнивание : Соединение по промежуткам
Продолжительность промежутка : 40 мс. (1,00 видеокадр)
Время предзагрузки промежутка : 504 мс.
Библиотека кодирования : LAME3.99r
Настройки программы : -m s -V 4 -q 2 -lowpass 17 -b 128





   Похожие торренты   Торрент   Размер 
В этой теме нет новых непрочитанных сообщений. Новый дом (1947) DVDRip-AVC от New-Team

4 | 11

1.09 ГБ

В этой теме нет новых непрочитанных сообщений. Весна (1947) DVDRip-AVC от New-Team

169 | 23

1.46 ГБ

В этой теме нет новых непрочитанных сообщений. Пирогов (1947) DVDRip от New-Team

6 | 7

744.43 МБ

В этой теме нет новых непрочитанных сообщений. Пирогов (1947) DVDRip-AVC от New-Team

7 | 2

1.46 ГБ

В этой теме нет новых непрочитанных сообщений. Весна (1947) DVDRip от New-Team

61 | 13

745.48 МБ

В этой теме нет новых непрочитанных сообщений. Весна (1947) DVDRip от New-Team

45 | 3

1.46 ГБ

В этой теме нет новых непрочитанных сообщений. Новый дом (1947) DVDRip от New-Team

5 | 16

1.09 ГБ




Вы не можете начинать темы
Вы не можете отвечать на сообщения
Вы не можете редактировать свои сообщения
Вы не можете удалять свои сообщения
Вы не можете добавлять вложения

Перейти:  
Для Мосгорсуда, Роскомнадзора и рекламодателей: mosgorsud-torrent[собачка]yandex.ru
 Вход
ppkBB3cker v.2 © 2008-2014 @ PPK
[ Time : 0.057s | 16 Queries | GZIP : Off ]

cron