img image001 image001 image001 image001 image001 image001 image001 image001 image001 image001 image001 image001 image001 image001 image001

Planets Sun Sun Sun
Статистика раздачи
Автор: Nickolas3434 | Размер: 745.41 МБ | Добавлен: 30 июн 2015
Раздают: 373    Качают: 40
Скачать торрент
Скачать торрент
Описание торрента

СообщениеДобавлено: 30 июн 2015 


Информация о фильме
Название: За чужие грехи
Год выхода: 2015
Жанр: Мелодрама
Режиссер: Сергей Борчуков
В ролях: Светлана Тимофеева-Летуновская, Андрей Егоров, Ольга Чудакова, Ксения Ильясова, Даниил Мызников, Александр Орлов, Дарья Белоусова, Полина Леонова, Юлия Куварзина, Сергей Беляев, Мария Говорова
О фильме:
Шура - женщина 45 лет, привлекательная вдова. Она живет вместе с 25-летним сыном, невесткой и внуком в одной квартире, работает бухгалтером. Шура готова отдать все до последнего сыну и внуку. Мягкая и отзывчивая, она помогает всем, чем и пользуется ее невестка. Сын Шуры Игорь - подкаблучник. Он без памяти любит свою жену, которая ему изменяет, и готов даже предать мать ради спокойствия жены. Сын разменивает квартиру матери, и Шура оказывается в коммуналке на окраине города.
Страна: Россия
Студия: Кинокомпания Русское, М.Продакшн
Продолжительность: 01:30:59
Перевод: Не требуется
Файл
Кодек: XviD
Качество: HDTVRip
Видео: 624x352 (1.77:1), 25 fps, XviD build 73 ~1008 kbps avg, 0.184 bit/pixel
Звук: 48 kHz, MPEG Layer 3, 2 ch, ~128.00 kbps avg
Субтитры: Отсутствуют
Семпл
General
Complete name : D:Изготовление рипаZa.chuzhie.grehi.2015.HDTVip.by shkiper.avi
Format : AVI
Format/Info : Audio Video Interleave
File size : 745 MiB
Duration : 1h 30mn
Overall bit rate : 1 145 Kbps
Writing application : VirtualDubMod 1.5.10.3 | www.virtualdub-fr.org || (build 2550/release)
Writing library : VirtualDubMod build 2550/release
Video
ID : 0
Format : MPEG-4 Visual
Format profile : Advanced Simple@L5
Format settings, BVOP : 1
Format settings, QPel : No
Format settings, GMC : No warppoints
Format settings, Matrix : Default (MPEG)
Codec ID : XVID
Codec ID/Hint : XviD
Duration : 1h 30mn
Bit rate : 1 008 Kbps
Width : 624 pixels
Height : 352 pixels
Display aspect ratio : 16:9
Frame rate : 25.000 fps
Color space : YUV
Chroma subsampling : 4:2:0
Bit depth : 8 bits
Scan type : Progressive
Compression mode : Lossy
Bits/(Pixel*Frame) : 0.184
Stream size : 656 MiB (88%)
Writing library : XviD 73
Audio
ID : 1
Format : MPEG Audio
Format version : Version 1
Format profile : Layer 3
Mode : Joint stereo
Mode extension : MS Stereo
Codec ID : 55
Codec ID/Hint : MP3
Duration : 1h 30mn
Bit rate mode : Constant
Bit rate : 128 Kbps
Channel(s) : 2 channels
Sampling rate : 48.0 KHz
Compression mode : Lossy
Stream size : 83.3 MiB (11%)
Alignment : Aligned on interleaves
Interleave, duration : 40 ms (1.00 video frame)
Interleave, preload duration : 504 ms
Writing library : LAME3.99r
Encoding settings : -m j -V 4 -q 2 -lowpass 17 -b 128

Автор Рипа:



   Похожие торренты   Торрент   Размер 
В этой теме нет новых непрочитанных сообщений. За чужие грехи (2015) HDTVRip от Files-x

1155 | 40

1.37 ГБ

В этой теме нет новых непрочитанных сообщений. За чужие грехи (2015) HDTVRip 720p от MediaClub

187 | 12

2.43 ГБ

В этой теме нет новых непрочитанных сообщений. За чужие грехи (2015) WEB-DLRip от Interhit

351 | 42

1.37 ГБ

В этой теме нет новых непрочитанных сообщений. Грехи ночи / Ночные грехи / Sins of the Night (1993) DVDRip | A

63 | 35

699.2 МБ

В этой теме нет новых непрочитанных сообщений. Святые и чужие / Saints and Strangers [S01] (2015) HDTVRip | IdeaFilm

75 | 12

2.37 ГБ

В этой теме нет новых непрочитанных сообщений. Святые и чужие / Saints and Strangers [S01] (2015) HDTVRip 720p | L

40 | 0

5.08 ГБ

В этой теме нет новых непрочитанных сообщений. Святые и чужие / Saints and Strangers [01x01 из 02] (2015) HDTVRip 720p | L

1 | 0

2.53 ГБ




Вы не можете начинать темы
Вы не можете отвечать на сообщения
Вы не можете редактировать свои сообщения
Вы не можете удалять свои сообщения
Вы не можете добавлять вложения

Перейти:  
Для Мосгорсуда, Роскомнадзора и рекламодателей: mosgorsud-torrent[собачка]yandex.ru
 Вход
ppkBB3cker v.2 © 2008-2014 @ PPK
[ Time : 0.041s | 15 Queries | GZIP : Off ]

cron