img image001 image001 image001 image001 image001 image001 image001 image001 image001 image001 image001 image001 image001 image001 image001

Planets Sun Sun Sun
Статистика раздачи
Автор: Nickolas3434 | Размер: 1.09 ГБ | Добавлен: 02 июл 2015
Раздают: 40    Качают: 12
Скачать торрент
Скачать торрент
Описание торрента

СообщениеДобавлено: 02 июл 2015 

Страна: СССР
Производство: Свердловская киностудия
Жанр: боевик
Год выпуска: 1990
Продолжительность: 01:23:41
Перевод: Не требуется
Cубтитры: нет
Оригинальная аудиодорожка: русский
Режиссер: Ольгерд Воронцов
В ролях:
Владимир Кузнецов, Андрей Болтнев, Ирина Цывина, Валерий Баринов, Юрий Астафьев, Татьяна Панкова, Владимир Кабалин, Рим Аюпов, Елена Драпеко, Валентина Березуцкая, Изиль Заблудовский, Валерий Лысенков, Леонид Неведомский, Семен Фурман...
Описание:
В провинциальном городе совершено вооруженное нападение на инкассаторов, в перестрелке погибает сотрудник МВД. Из Москвы прибывает следователь, оказавшийся близким другом погибшего. Жестокость совершенного убийства наводит его на мысль о возможной мести. Городские органы не рады этому приезду и стремятся как можно быстрей завершить дело, хотя бы и ценой ошибки. Но задача друга найти истинного убийцу, даже, несмотря на то, что расследование ему приходится вести практически одному.





Источник: DVB
Качество видео: SATRip-AVC
Формат видео: MKV
Видео: 712->1016x572 (16:9), 25 fps, H264 ~ 1660 kbps avg, 0.164 bit/pixel
Аудио: 48 kHz, Dolby Digital AC3 2.0, 192 kbps
Раздача от:
Общее
Полное имя : V.polose.priboya.1990.SATRip-AVC_[New-team]_by_AVP_Studio.mkv
Формат : Matroska
Версия формата : Version 2
Размер файла : 1,09 Гбайт
Продолжительность : 1 ч. 23 м.
Общий поток : 1860 Кбит/сек
Дата кодирования : UTC 2015-06-30 00:22:54
Программа кодирования : mkvmerge v6.1.0 ('Old Devil') built on Mar 4 2013 09:10:42
Библиотека кодирования : libebml v1.3.0 + libmatroska v1.4.0
Видео
Идентификатор : 1
Формат : AVC
Формат/Информация : Advanced Video Codec
Профиль формата : High@L4.1
Параметр CABAC формата : Да
Параметр ReFrames формата : 8 кадров
Идентификатор кодека : V_MPEG4/ISO/AVC
Продолжительность : 1 ч. 23 м.
Битрейт : 1666 Кбит/сек
Ширина : 712 пикселей
Высота : 572 пикселя
Соотношение сторон : 16:9
Режим частоты кадров : Постоянный
Частота кадров : 25,000 кадров/сек
Цветовое пространство : YUV
Субдискретизация насыщенности : 4:2:0
Битовая глубина : 8 бит
Тип развёртки : Прогрессивная
Бит/(Пиксели*Кадры) : 0.164
Размер потока : 978 Мбайт (88%)
Библиотека кодирования : x264 core 138 r2356 a1d3d17
Настройки программы : cabac=1 / ref=8 / deblock=1:-2:-1 / analyse=0x3:0x113 / me=umh / subme=10 / psy=1 / psy_rd=1.00:0.05 / mixed_ref=1 / me_range=32 / chroma_me=1 / trellis=2 / 8x8dct=1 / cqm=0 / deadzone=21,11 / fast_pskip=0 / chroma_qp_offset=-3 / threads=6 / lookahead_threads=1 / sliced_threads=0 / nr=0 / decimate=0 / interlaced=0 / bluray_compat=0 / constrained_intra=0 / bframes=8 / b_pyramid=2 / b_adapt=2 / b_bias=0 / direct=3 / weightb=1 / open_gop=0 / weightp=2 / keyint=250 / keyint_min=25 / scenecut=40 / intra_refresh=0 / rc=2pass / mbtree=0 / bitrate=1666 / ratetol=1.0 / qcomp=0.60 / qpmin=0 / qpmax=69 / qpstep=4 / cplxblur=20.0 / qblur=0.5 / ip_ratio=1.40 / pb_ratio=1.30 / aq=1:1.00
Default : Да
Forced : Нет
Аудио
Идентификатор : 2
Формат : AC-3
Формат/Информация : Audio Coding 3
Расширение режима : CM (complete main)
Параметр Endianness формата : Big
Идентификатор кодека : A_AC3
Продолжительность : 1 ч. 23 м.
Вид битрейта : Постоянный
Битрейт : 192 Кбит/сек
Каналы : 2 канала
Расположение каналов : Front: L R
Частота : 48,0 КГц
Битовая глубина : 16 бит
Метод сжатия : С потерями
Размер потока : 115 Мбайт (10%)
Default : Да
Forced : Нет





   Похожие торренты   Торрент   Размер 
В этой теме нет новых непрочитанных сообщений. В полосе прибоя (1990) SATRip от New-Team

80 | 23

1.09 ГБ

В этой теме нет новых непрочитанных сообщений. В полосе прибоя (1990) SATRip от New-Team

16 | 8

745.51 МБ

В этой теме нет новых непрочитанных сообщений. В полосе прибоя (1990) SATRip

31 | 11

888.9 МБ

В этой теме нет новых непрочитанных сообщений. В полосе прибоя (1990) DVB

37 | 4

3.57 ГБ

В этой теме нет новых непрочитанных сообщений. S.T.A.L.K.E.R.: История Прибоя 2 - Скрытая угроза / S.T.A.L.K.E.R.: Priboi Story 2 - Latent threat ( 2011) PC | RePack от R.G. NoLimits-Team GameS

178 | 35

3.57 ГБ

В этой теме нет новых непрочитанных сообщений. Дорожный беспредел. Смерть на белой полосе [эфир от 05.06] (2012) SATRip

0 | 3

525.84 МБ

В этой теме нет новых непрочитанных сообщений. Расследования комиссара Мегрэ / Les enquetes du commissaire Maigret [16 из 88] (1967–1990) SATRip-AVC от New-Team | P

11 | 12

18.08 ГБ




Вы не можете начинать темы
Вы не можете отвечать на сообщения
Вы не можете редактировать свои сообщения
Вы не можете удалять свои сообщения
Вы не можете добавлять вложения

Перейти:  
Для Мосгорсуда, Роскомнадзора и рекламодателей: mosgorsud-torrent[собачка]yandex.ru
 Вход
ppkBB3cker v.2 © 2008-2014 @ PPK
[ Time : 1.716s | 15 Queries | GZIP : On ]

Торрент трекер RUTOR.IN, Не можете зайти на rutor.org? Какой новый адрес рутор? Какое зеркало рутор? Не работает rutor.org и зеркала? Тогда наш торрент специально для вас. Rutor.in неофициальное зеркало rutor. В случае если у Вас заблокирован rutor или вдруг Вы не можете на него зайти, то Вы без труда сможете скачать бесплатно и без рекламы последние новинки кино, игр, сериалов и прочего у нас, на Rutor.in. Не нужно использовать прокси, чтобы зайти на рутор, достаточно воспользоваться нашим ресурсом. Все новые фильмы, игры, сериалы, книги и музыка за 2013 и 2014 годы через торрент бесплатно. Скачивайте фильмы в хорошем качестве, игры для пк, xbox, playstation без регистрации. У нас вы найдете новые Зарубежные сериалы и Русские сериалы 2013, 2014, 2015 годов. Оставайтесь с нами, качайте любимые фильмы, игры, сериалы, книги и музыку.