img image001 image001 image001 image001 image001 image001 image001 image001 image001 image001 image001 image001 image001 image001 image001

Planets Sun Sun Sun
Статистика раздачи
Автор: Nickolas3434 | Размер: 1.46 ГБ | Добавлен: 01 июл 2015
Раздают: 15    Качают: 4
Скачать торрент
Скачать торрент
Описание торрента

СообщениеДобавлено: 01 июл 2015 

Страна: СССР
Производство: Киевская киностудия
Жанр: драма, военный
Год выпуска: 1947
Продолжительность: 01:06:22
Перевод: Не требуется
Cубтитры: нет
Оригинальная аудиодорожка: русский
Режиссер: Борис Барнет
В ролях:
Павел Кадочников, Виктор Добровольский, Амвросий Бучма, Дмитрий Милютенко, Сергей Мартинсон, Елена Измайлова, Борис Барнет, Михаил Романов, Петр Аржанов, Евгений Балиев, Валерия Драга, Сергей Петров, Виктор Халатов, В. Улесова, Алексей Быков...
Описание:
Советский разведчик Алексей Федотов под именем Генриха Эккерта отправляется в оккупированную немцами Винницу. Его цель — добыть секретную переписку генерала Кюна со ставкой Гитлера. Радист, посланный к Алексею для связи, пойман немцами и расстрелян. Федотов вынужден искать связь через подполье, но случайно он узнает, что один из подпольщиков — провокатор. Блестящий профессионал не только выполняет задание по сбору ценнейшей информации, но и, возвращаясь на Родину, прихватывает с собой самого генерала.





Источник: DVD5 R5
Качество видео: DVDRip
Формат видео: AVI
Видео: 688x512 (4:3), 25 fps, XviD ~ 2133 kbps avg, 0.242 bit/pixel
Аудио: 48 kHz, Dolby Digital AC3 2.0, 192 kbps
Раздача от:
Общее
Полное имя : Podvig.razvedchika.1947.DVDRip_[New-team]_by_AVP_Studio.avi
Формат : AVI
Формат/Информация : Audio Video Interleave
Размер файла : 1,46 Гбайт
Продолжительность : 1 ч. 29 м.
Общий поток : 2335 Кбит/сек
Программа кодирования : VirtualDubModRus 1.5.10.2 (build 2542/release)
Библиотека кодирования : VirtualDubMod build 2542/release
Видео
Идентификатор : 0
Формат : MPEG-4 Visual
Профиль формата : Advanced Simple@L5
Параметр BVOP формата : 1
Параметр QPel формата : Нет
Параметр GMC формата : Без точки перехода
Параметр матрицы формата : Выборочная
Идентификатор кодека : XVID
Идентификатор кодека/Подсказка : XviD
Продолжительность : 1 ч. 29 м.
Битрейт : 2133 Кбит/сек
Ширина : 688 пикселей
Высота : 512 пикселей
Соотношение сторон : 4:3
Частота кадров : 25,000 кадров/сек
Цветовое пространство : YUV
Субдискретизация насыщенности : 4:2:0
Битовая глубина : 8 бит
Тип развёртки : Прогрессивная
Метод сжатия : С потерями
Бит/(Пиксели*Кадры) : 0.242
Размер потока : 1,33 Гбайт (91%)
Библиотека кодирования : XviD 73
Аудио
Идентификатор : 1
Формат : AC-3
Формат/Информация : Audio Coding 3
Расширение режима : CM (complete main)
Параметр Endianness формата : Big
Идентификатор кодека : 2000
Продолжительность : 1 ч. 29 м.
Вид битрейта : Постоянный
Битрейт : 192 Кбит/сек
Каналы : 2 канала
Расположение каналов : Front: L R
Частота : 48,0 КГц
Битовая глубина : 16 бит
Метод сжатия : С потерями
Размер потока : 123 Мбайт (8%)
Выравнивание : Разделение по промежуткам
Продолжительность промежутка : 40 мс. (1,00 видеокадр)
Время предзагрузки промежутка : 500 мс





   Похожие торренты   Торрент   Размер 
В этой теме нет новых непрочитанных сообщений. Подвиг разведчика (1947) DVDRip-AVC от New-Team

15 | 4

1.46 ГБ

В этой теме нет новых непрочитанных сообщений. Подвиг разведчика (1947) DVDRip от New-Team

12 | 11

745.44 МБ

В этой теме нет новых непрочитанных сообщений. Подвиг разведчика (1947) DVDRip-AVC

14 | 4

783.98 МБ

В этой теме нет новых непрочитанных сообщений. Подвиг разведчика (1947) DVDRip-AVC от ExKinoRay

114 | 10

1.46 ГБ

В этой теме нет новых непрочитанных сообщений. Последний подвиг Камо (1973) DVDRip от New-Team

8 | 0

744.84 МБ

В этой теме нет новых непрочитанных сообщений. Последний подвиг Камо (1973) DVDRip-AVC от New-Team

3 | 1

741.14 МБ

В этой теме нет новых непрочитанных сообщений. Новый дом (1947) DVDRip от New-Team

5 | 14

1.09 ГБ




Вы не можете начинать темы
Вы не можете отвечать на сообщения
Вы не можете редактировать свои сообщения
Вы не можете удалять свои сообщения
Вы не можете добавлять вложения

Перейти:  
Для Мосгорсуда, Роскомнадзора и рекламодателей: mosgorsud-torrent[собачка]yandex.ru
 Вход
ppkBB3cker v.2 © 2008-2014 @ PPK
[ Time : 0.055s | 17 Queries | GZIP : Off ]

Торрент трекер RUTOR.IN, Не можете зайти на rutor.org? Какой новый адрес рутор? Какое зеркало рутор? Не работает rutor.org и зеркала? Тогда наш торрент специально для вас. Rutor.in неофициальное зеркало rutor. В случае если у Вас заблокирован rutor или вдруг Вы не можете на него зайти, то Вы без труда сможете скачать бесплатно и без рекламы последние новинки кино, игр, сериалов и прочего у нас, на Rutor.in. Не нужно использовать прокси, чтобы зайти на рутор, достаточно воспользоваться нашим ресурсом. Все новые фильмы, игры, сериалы, книги и музыка за 2013 и 2014 годы через торрент бесплатно. Скачивайте фильмы в хорошем качестве, игры для пк, xbox, playstation без регистрации. У нас вы найдете новые Зарубежные сериалы и Русские сериалы 2013, 2014, 2015 годов. Оставайтесь с нами, качайте любимые фильмы, игры, сериалы, книги и музыку.
cron