img image001 image001 image001 image001 image001 image001 image001 image001 image001 image001 image001 image001 image001 image001 image001

Planets Sun Sun Sun
Статистика раздачи
Автор: Nickolas3434 | Размер: 1.77 ГБ | Добавлен: 02 июл 2015
Раздают: 83    Качают: 4
Скачать торрент
Скачать торрент
Описание торрента

СообщениеДобавлено: 02 июл 2015 


Информация о фильме
Название: Солнцекруг
Год выхода: 2012
Жанр: Драма
Режиссер: Заза Буадзе
В ролях: Виктория Исакова, Сергей Романюк, Игорь Ботвин, Лариса Малеванная, Ярослав Гуменюк, Станислав Боклан, Сергей Тряшин, Алексей Евченко, Сергей Тихомиров, Олег Горбань, Николай Таран, Станислав Арсентьев, Светлана Орличенко, Виктор Сарайкин
О фильме:
Руководитель телеканала Анна занимает высокое положение в обществе – у нее престижная должность, богатый жених и влиятельный отец. Однако за внешним благополучием скрывается отсутствие настоящих чувств и главная проблема – бесплодие. Отчаявшись вылечиться традиционными способами, Анна решает обратиться к знахарке, которая, возможно, ей поможет. Встреча с целительницей изменяет ее жизнь и указывает путь, о котором Анна даже не задумывалась – к самой себе
Страна: Россия
Студия: FRESH production
Продолжительность: 01:31:56
Язык: Русский
Файл
Кодек: MPEG-4 AVC
Качество: WEB-DL 720p
Видео: MPEG-4 AVC, ~ 2500 Кбит/с, 1280x720, 25 кадр/с
Звук: AC3, 2 ch, 192 Кбит/с
Релиз от:
General
Complete name : Solncekrug.2012.WEB-DL.(720p).ExKinoRay.mkv
Format : Matroska
Format version : Version 2
File size : 1.77 GiB
Duration : 1h 31mn
Overall bit rate : 2 753 Kbps
Encoded date : UTC 2015-06-30 20:08:25
Writing application : mkvmerge v5.8.0 ('No Sleep / Pillow') built on Sep 2 2012 15:37:04
Writing library : libebml v1.2.3 + libmatroska v1.3.0
Video
ID : 1
Format : AVC
Format/Info : Advanced Video Codec
Format profile : High@L4.0
Format settings, CABAC : Yes
Format settings, ReFrames : 4 frames
Codec ID : V_MPEG4/ISO/AVC
Duration : 1h 31mn
Bit rate : 2 507 Kbps
Width : 1 280 pixels
Height : 720 pixels
Display aspect ratio : 16:9
Frame rate mode : Constant
Frame rate : 25.000 fps
Color space : YUV
Chroma subsampling : 4:2:0
Bit depth : 8 bits
Scan type : Progressive
Bits/(Pixel*Frame) : 0.109
Stream size : 1.61 GiB (91%)
Language : Russian
Default : Yes
Forced : Yes
Audio
ID : 2
Format : AC-3
Format/Info : Audio Coding 3
Mode extension : CM (complete main)
Format settings, Endianness : Big
Codec ID : A_AC3
Duration : 1h 31mn
Bit rate mode : Constant
Bit rate : 192 Kbps
Channel(s) : 2 channels
Channel positions : Front: L R
Sampling rate : 48.0 KHz
Bit depth : 16 bits
Compression mode : Lossy
Stream size : 126 MiB (7%)
Language : Russian
Default : Yes
Forced : Yes





   Похожие торренты   Торрент   Размер 
В этой теме нет новых непрочитанных сообщений. Солнцекруг (2012) WEB-DLRip от ExKinoRay

146 | 7

1.37 ГБ

В этой теме нет новых непрочитанных сообщений. Солнцекруг (2012) SATRip

109 | 9

1.03 ГБ

В этой теме нет новых непрочитанных сообщений. Схватка [01-04 из 04] (2012) WEB-DL 720p от ExKinoRay

206 | 39

4.01 ГБ

В этой теме нет новых непрочитанных сообщений. В Россию за любовью! (2012) WEB-DL 720p от ExKinoRay

9 | 0

1.17 ГБ

В этой теме нет новых непрочитанных сообщений. Облачата / Cloudbabies [01-09] (2012) WEB-DLRip 720p от ExKinoRay | D

14 | 0

710.83 МБ

В этой теме нет новых непрочитанных сообщений. Облачата / Cloudbabies [01-09] (2012) WEB-DLRip 720p от ExKinoRay | D

16 | 7

870.16 МБ

В этой теме нет новых непрочитанных сообщений. 007: Координаты «Скайфолл» / Skyfall (2012) BDRip 720p от ExKinoRay | D, A

144 | 25

7.32 ГБ




Вы не можете начинать темы
Вы не можете отвечать на сообщения
Вы не можете редактировать свои сообщения
Вы не можете удалять свои сообщения
Вы не можете добавлять вложения

Перейти:  
Для Мосгорсуда, Роскомнадзора и рекламодателей: mosgorsud-torrent[собачка]yandex.ru
 Вход
ppkBB3cker v.2 © 2008-2014 @ PPK
[ Time : 0.068s | 15 Queries | GZIP : Off ]

Торрент трекер RUTOR.IN, Не можете зайти на rutor.org? Какой новый адрес рутор? Какое зеркало рутор? Не работает rutor.org и зеркала? Тогда наш торрент специально для вас. Rutor.in неофициальное зеркало rutor. В случае если у Вас заблокирован rutor или вдруг Вы не можете на него зайти, то Вы без труда сможете скачать бесплатно и без рекламы последние новинки кино, игр, сериалов и прочего у нас, на Rutor.in. Не нужно использовать прокси, чтобы зайти на рутор, достаточно воспользоваться нашим ресурсом. Все новые фильмы, игры, сериалы, книги и музыка за 2013 и 2014 годы через торрент бесплатно. Скачивайте фильмы в хорошем качестве, игры для пк, xbox, playstation без регистрации. У нас вы найдете новые Зарубежные сериалы и Русские сериалы 2013, 2014, 2015 годов. Оставайтесь с нами, качайте любимые фильмы, игры, сериалы, книги и музыку.