img image001 image001 image001 image001 image001 image001 image001 image001 image001 image001 image001 image001 image001 image001 image001

Planets Sun Sun Sun
Статистика раздачи
Автор: Nickolas3434 | Размер: 708.44 МБ | Добавлен: 07 июл 2015, 15:54
Раздают: 1269    Качают: 60
Скачать торрент
Скачать торрент
Описание торрента

СообщениеДобавлено: 07 июл 2015, 15:54 


Информация о фильме
Название: А зори здесь тихие...
Год выхода: 2015
Жанр: Драма, военный, история
Режиссер: Ренат Давлетьяров
В ролях: Пётр Фёдоров, Евгения Малахова, Агния Кузнецова, Анастасия Микульчина, Софья Лебедева (II), Кристина Асмус, Екатерина Вилкова, Анатолий Белый, Дарья Мороз, Виктор Проскурин, Максим Дрозд, Наталья Батрак, Илья Алексеев, Валерий Гришко, Евгения Ульянова, Сергей Видинеев, Юлия Силаева, Елена Медведева, Илья Ермолов, Василиса Кучеренко, Алеся Гузько, Юлия Полынская, Надежда Азоркина, Евгений Костин, Артур Еникеев
О фильме: Май 1942 года. В самый разгар Великой Отечественной войны вдалеке от линии фронта, у забытого богом разъезда, фашисты выбрасывают десант с целью пробраться на Кировскую железную дорогу и Беломорско-Балтийский канал. Это не обычные солдаты-пехотинцы, это опытные, тренированные диверсанты, элита войск СС, «сверхлюди». А против них — старшина Васков и пять девчонок-зенитчиц. Казалось бы, бой местного значения, но на кону — стратегически важная транспортная артерия, соединяющая значимые центры страны. Смогут ли старшина и его хрупкие новобранцы предотвратить нацистскую диверсию, и какой ценой?
Страна: Россия
Студия: Реал-Дакота Интерфест, Star-Media
Продолжительность: 01:50:59
Перевод: Не требуется - iTunes Russia
Файл
Формат: avi
Видео: 688x288 (2.40:1), 25 fps, XviD build 73 ~755 kbps avg, 0.152 bit/pixel
Аудио: 48 kHz, MP3, 2/0 (L,R) ch, 128.00 kbps avg
A.Zori.Zdesj.Tihie.P.2015.XviD.WEB-DLRip.by.GeneralFilm.avi
Format : AVI
Format/Info : Audio Video Interleave
File size : 708 MiB
Duration : 1h 50mn
Overall bit rate : 892 Kbps
Writing application : VirtualDubMod 1.5.10.3 | www.virtualdub-fr.org || (build 2550/release)
Writing library : VirtualDubMod build 2550/release
Video
ID : 0
Format : MPEG-4 Visual
Format profile : Advanced Simple@L5
Format settings, BVOP : 1
Format settings, QPel : No
Format settings, GMC : No warppoints
Format settings, Matrix : Custom
Codec ID : XVID
Codec ID/Hint : XviD
Duration : 1h 50mn
Bit rate : 755 Kbps
Width : 688 pixels
Height : 288 pixels
Display aspect ratio : 2.40:1
Frame rate : 25.000 fps
Color space : YUV
Chroma subsampling : 4:2:0
Bit depth : 8 bits
Scan type : Progressive
Compression mode : Lossy
Bits/(Pixel*Frame) : 0.152
Stream size : 599 MiB (85%)
Writing library : XviD 73
Audio
ID : 1
Format : MPEG Audio
Format version : Version 1
Format profile : Layer 3
Codec ID : 55
Codec ID/Hint : MP3
Duration : 1h 50mn
Bit rate mode : Constant
Bit rate : 128 Kbps
Channel(s) : 2 channels
Sampling rate : 48.0 KHz
Compression mode : Lossy
Stream size : 102 MiB (14%)
Alignment : Aligned on interleaves
Interleave, duration : 40 ms (1.00 video frame)
Interleave, preload duratio : 504 ms
Writing library : LAME3.99r
Encoding settings : -m s -V 4 -q 0 -lowpass 17 -b 128




Релиз от: &



   Похожие торренты   Торрент   Размер 
В этой теме нет новых непрочитанных сообщений. А зори здесь тихие... (2015) WEB-DLRip | iTunes

852 | 45

2.05 ГБ

В этой теме нет новых непрочитанных сообщений. А зори здесь тихие... (2015) WEB-DLRip | iTunes

2005 | 89

1.37 ГБ

В этой теме нет новых непрочитанных сообщений. А зори здесь тихие... (2015) WEB-DL 1080p | iTunes

4999 | 269

4 ГБ

В этой теме нет новых непрочитанных сообщений. А зори здесь тихие... (2015) WEB-DL 720p | iTunes

1302 | 71

3.55 ГБ

В этой теме нет новых непрочитанных сообщений. А зори здесь тихие... (2015) WEB-DLRip от -=HD-NET=- | КПК

454 | 20

399.35 МБ

В этой теме нет новых непрочитанных сообщений. А зори здесь тихие... (2015) WEB-DLRip

7997 | 422

1.46 ГБ

В этой теме нет новых непрочитанных сообщений. А зори здесь тихие... (2015) WEB-DLRip 720p

5769 | 561

1.69 ГБ




Вы не можете начинать темы
Вы не можете отвечать на сообщения
Вы не можете редактировать свои сообщения
Вы не можете удалять свои сообщения
Вы не можете добавлять вложения

Перейти:  
Для Мосгорсуда, Роскомнадзора и рекламодателей: mosgorsud-torrent[собачка]yandex.ru
Настройки
ppkBB3cker v.2 © 2008-2014 @ PPK
[ Time : 0.523s | 15 Queries | GZIP : Off ]
CGP [Extreme] output time : 0.00023s | 0 Queries | GZIP : Off

Торрент трекер RUTOR.IN, Не можете зайти на rutor.org? Какой новый адрес рутор? Какое зеркало рутор? Не работает rutor.org и зеркала? Тогда наш торрент специально для вас. Rutor.in неофициальное зеркало rutor. В случае если у Вас заблокирован rutor или вдруг Вы не можете на него зайти, то Вы без труда сможете скачать бесплатно и без рекламы последние новинки кино, игр, сериалов и прочего у нас, на Rutor.in. Не нужно использовать прокси, чтобы зайти на рутор, достаточно воспользоваться нашим ресурсом. Все новые фильмы, игры, сериалы, книги и музыка за 2013 и 2014 годы через торрент бесплатно. Скачивайте фильмы в хорошем качестве, игры для пк, xbox, playstation без регистрации. У нас вы найдете новые Зарубежные сериалы и Русские сериалы 2013, 2014, 2015 годов. Оставайтесь с нами, качайте любимые фильмы, игры, сериалы, книги и музыку.