img image001 image001 image001 image001 image001 image001 image001 image001 image001 image001 image001 image001 image001 image001 image001

Planets Sun Sun Sun
Статистика раздачи
Автор: Nickolas3434 | Размер: 1.69 ГБ | Добавлен: 07 июл 2015
Раздают: 306    Качают: 18
Скачать торрент
Скачать торрент
Описание торрента

СообщениеДобавлено: 07 июл 2015 


Информация о фильме
Название: Часовщик
Год выхода: 2013
Жанр: Боевик, криминал, драма
Режиссер: Алексей Феоктистов
В ролях: Ольга Дибцева, Максим Дрозд, Андрей Харыбин, Борис Клюев, Олеся Поташинская, Дмитрий Супонин
О фильме:
Феликс, прозванный за свое увлечение коллекционированием часов «часовщиком», служит в секретном элитном подразделении «ликвидаторов». Он высокопрофессиональный безукоризненный киллер, который всегда работает по правилам — «чисто» во время и без следов. И это оборотная медаль его прозвища. У него всегда все точно и все «по часам».Такая работа требует полного самообладания и беспристрастности, и в своём деле ему нет равных. Феликс всегда работал один, но ему пришлось стать наставником молодого и отчаянного Бориса. Феликс хочет закончить свою карьеру. Но просто так выйти из дел нельзя и он начинает готовить себе замену. Но, как бы не хотел главный герой всех уважить, как известно, из такой профессии есть только один выход... Методичный профессионал и импульсивный ученик теперь на пару «устраняют проблемы», но рано или поздно они сойдутся в смертельной схватке...
Страна: Россия
Студия: ПРО100 Фильм
Продолжительность: 01:28:00
Язык: Русский
Файл
Кодек: MPEG-4 AVC
Качество: WEB-DL 720p
Видео: MPEG-4 AVC, ~ 2500 Кбит/с, 1280x720, 25 кадр/с
Звук: AC3, 2 ch, 192 Кбит/с
Релиз от:
General
Complete name : Chasovshik.2013.WEB-DL.(720p).ExKinoRay.mkv
Format : Matroska
Format version : Version 2
File size : 1.69 GiB
Duration : 1h 27mn
Overall bit rate : 2 756 Kbps
Encoded date : UTC 2015-07-06 14:56:00
Writing application : mkvmerge v5.8.0 ('No Sleep / Pillow') built on Sep 2 2012 15:37:04
Writing library : libebml v1.2.3 + libmatroska v1.3.0
Video
ID : 1
Format : AVC
Format/Info : Advanced Video Codec
Format profile : High@L4.0
Format settings, CABAC : Yes
Format settings, ReFrames : 4 frames
Codec ID : V_MPEG4/ISO/AVC
Duration : 1h 27mn
Bit rate : 2 509 Kbps
Width : 1 280 pixels
Height : 720 pixels
Display aspect ratio : 16:9
Frame rate mode : Constant
Frame rate : 25.000 fps
Color space : YUV
Chroma subsampling : 4:2:0
Bit depth : 8 bits
Scan type : Progressive
Bits/(Pixel*Frame) : 0.109
Stream size : 1.54 GiB (91%)
Language : Russian
Default : Yes
Forced : Yes
Audio
ID : 2
Format : AC-3
Format/Info : Audio Coding 3
Mode extension : CM (complete main)
Format settings, Endianness : Big
Codec ID : A_AC3
Duration : 1h 27mn
Bit rate mode : Constant
Bit rate : 192 Kbps
Channel(s) : 2 channels
Channel positions : Front: L R
Sampling rate : 48.0 KHz
Bit depth : 16 bits
Compression mode : Lossy
Stream size : 121 MiB (7%)
Language : Russian
Default : Yes
Forced : Yes





   Похожие торренты   Торрент   Размер 
В этой теме нет новых непрочитанных сообщений. Часовщик (2013) WEB-DLRip от ExKinoRay

762 | 41

1.37 ГБ

В этой теме нет новых непрочитанных сообщений. Часовщик (2013) TVRip

332 | 13

1.44 ГБ

В этой теме нет новых непрочитанных сообщений. Часовщик из Сен-Поля / L'horloger de Saint-Paul (1974) BDRip | P

45 | 27

1.6 ГБ

В этой теме нет новых непрочитанных сообщений. Часовщик из Сен-Поля / L'horloger de Saint-Paul (1974) DVDRip-AVC

2 | 2

1.36 ГБ

В этой теме нет новых непрочитанных сообщений. Ой, Ма-моч-ки!.. / Ой, мамочки! [01-12 из 12] (2013-2014) WEB-DL 720p от ExKinoRay

191 | 64

10.15 ГБ

В этой теме нет новых непрочитанных сообщений. Убить Сталина [01-08 из 08] (2013) WEB-DL 720p от ExKinoRay

81 | 13

5.67 ГБ

В этой теме нет новых непрочитанных сообщений. Я думал, ты будешь всегда (2013) WEB-DL 720p от ExKinoRay

243 | 36

1.4 ГБ




Вы не можете начинать темы
Вы не можете отвечать на сообщения
Вы не можете редактировать свои сообщения
Вы не можете удалять свои сообщения
Вы не можете добавлять вложения

Перейти:  
Для Мосгорсуда, Роскомнадзора и рекламодателей: mosgorsud-torrent[собачка]yandex.ru
 Вход
ppkBB3cker v.2 © 2008-2014 @ PPK
[ Time : 0.044s | 14 Queries | GZIP : Off ]

Торрент трекер RUTOR.IN, Не можете зайти на rutor.org? Какой новый адрес рутор? Какое зеркало рутор? Не работает rutor.org и зеркала? Тогда наш торрент специально для вас. Rutor.in неофициальное зеркало rutor. В случае если у Вас заблокирован rutor или вдруг Вы не можете на него зайти, то Вы без труда сможете скачать бесплатно и без рекламы последние новинки кино, игр, сериалов и прочего у нас, на Rutor.in. Не нужно использовать прокси, чтобы зайти на рутор, достаточно воспользоваться нашим ресурсом. Все новые фильмы, игры, сериалы, книги и музыка за 2013 и 2014 годы через торрент бесплатно. Скачивайте фильмы в хорошем качестве, игры для пк, xbox, playstation без регистрации. У нас вы найдете новые Зарубежные сериалы и Русские сериалы 2013, 2014, 2015 годов. Оставайтесь с нами, качайте любимые фильмы, игры, сериалы, книги и музыку.