img image001 image001 image001 image001 image001 image001 image001 image001 image001 image001 image001 image001 image001 image001 image001

Planets Sun Sun Sun
Статистика раздачи
Автор: Nickolas3434 | Размер: 3.53 ГБ | Добавлен: 12 июл 2015
Раздают: 494    Качают: 23
Скачать торрент
Скачать торрент
Описание торрента

СообщениеДобавлено: 12 июл 2015 


Наименование: Пионеры-герои
Произведено: Россия
Категория: драма
Режиссер постановщик: Наталья Кудряшова
В главных ролях: Наталья Кудряшова, Дарья Мороз, Алексей Митин, Александр Усердин, Светлана Письмиченко, Ёла Санько, Юрий Кузнецов, Александр Обласов, Владимир Капустин, Жанна Демихова
Краткое описание: Ольга, Катя и Андрей давно приехали в Москву, они дружат со школы. Они вполне успешны. Ольга - актриса, Катя - работает в крупном PR-агентстве, Андрей политический аналитик. Они покупают машины, берут ипотеки, строят дачи. Живут как все. Но это не приносит им ни счастья, ни удовлетворения. Ощущение, «что все вроде нормально, но что-то не так» - лейтмотив жизни сегодняшних тридцатилетних. Их детство пришлось на советскую пору - когда дети мечтали о подвигах, верили в шпионов и светлое будущее, и никто не ожидал, что мечту о подвиге заменит мечта о стабильности. Люди больше не мечтают о великом. Они просто живут.

Файл
Кодек: MPEG-4 AVC
Качество: WEB-DL 720p
Видео данные: 3908 kb/s, 1280x532
Аудио данные: AC3, 384 kb/s (6 ch)
Перевод: Оригинал [iTunes]
Продолжительность: 01:55:22
Субтитры: Отсутствуют

General
Format : Matroska
Format version : Version 4 / Version 2
File size : 3.53 GiB
Duration : 1h 55mn
Overall bit rate : 4 379 Kbps
Encoded date : UTC 2015-07-07 04:12:22
Writing application : mkvmerge v6.5.0 ('Isn't she lovely') built on Oct 20 2013 12:50:05
Writing library : libebml v1.3.0 + libmatroska v1.4.1
Video
ID : 1
Format : AVC
Format/Info : Advanced Video Codec
Format profile : Main@L3.1
Format settings, CABAC : No
Format settings, ReFrames : 2 frames
Codec ID : V_MPEG4/ISO/AVC
Duration : 1h 55mn
Bit rate : 3 908 Kbps
Width : 1 280 pixels
Height : 532 pixels
Display aspect ratio : 2.40:1
Frame rate : 24.000 fps
Color space : YUV
Chroma subsampling : 4:2:0
Bit depth : 8 bits
Scan type : Progressive
Bits/(Pixel*Frame) : 0.239
Stream size : 3.15 GiB (89%)
Language : Russian
Default : Yes
Forced : No
Color primaries : BT.709-5, BT.1361, IEC 61966-2-4, SMPTE RP177
Transfer characteristics : BT.709-5, BT.1361
Matrix coefficients : BT.709-5, BT.1361, IEC 61966-2-4 709, SMPTE RP177
Audio
ID : 2
Format : AC-3
Format/Info : Audio Coding 3
Mode extension : CM (complete main)
Format settings, Endianness : Big
Codec ID : A_AC3
Duration : 1h 55mn
Bit rate mode : Constant
Bit rate : 384 Kbps
Channel(s) : 6 channels
Channel positions : Front: L C R, Side: L R, LFE
Sampling rate : 48.0 KHz
Bit depth : 16 bits
Compression mode : Lossy
Stream size : 317 MiB (9%)
Language : Russian
Default : Yes
Forced : No
Menu
00:00:00.000 : en:Глава 1
00:04:52.000 : en:Глава 2
00:10:07.000 : en:Глава 3
00:13:42.000 : en:Глава 4
00:18:43.000 : en:Глава 5
00:22:49.000 : en:Глава 6
00:27:32.000 : en:Глава 7
00:33:51.000 : en:Глава 8
00:38:00.000 : en:Глава 9
00:43:36.000 : en:Глава 10
00:52:21.000 : en:Глава 11
00:58:53.000 : en:Глава 12
01:05:41.000 : en:Глава 13
01:12:23.000 : en:Глава 14
01:16:59.000 : en:Глава 15
01:22:17.000 : en:Глава 16
01:29:02.000 : en:Глава 17
01:33:45.000 : en:Глава 18
01:38:15.000 : en:Глава 19
01:42:53.000 : en:Глава 20



   Похожие торренты   Торрент   Размер 
В этой теме нет новых непрочитанных сообщений. Пионеры-герои (2015) WEB-DLRip от MegaPeer | iTunes

959 | 45

744.4 МБ

В этой теме нет новых непрочитанных сообщений. Джеймс Фенимор Купер - Пионеры, или У истоков Саскуиханны (2015) MP3

23 | 3

793.36 МБ

В этой теме нет новых непрочитанных сообщений. Одесса: Герои Подземной Крепости (2015) HDTVRip 720p

57 | 12

1.28 ГБ

В этой теме нет новых непрочитанных сообщений. Герои: Возрождение / Heroes Reborn [01х01-06 из 13] (2015) WEB-DL 720p | NewStudio

25 | 40

8.54 ГБ

В этой теме нет новых непрочитанных сообщений. Герои: Возрождение / Heroes Reborn [01x01-05 из 13] (2015) WEB-DL 720p | Kerob

45 | 159

6.15 ГБ

В этой теме нет новых непрочитанных сообщений. Герои: Возрождение / Heroes: Reborn [S01] (2015) HDTVRip 720p | JASKiER

143 | 515

14.32 ГБ

В этой теме нет новых непрочитанных сообщений. Герои: Возрождение / Heroes Reborn [01х01-02 из 13] (2015) WEB-DL 720p | IdeaFilm

49 | 29

2.46 ГБ




Вы не можете начинать темы
Вы не можете отвечать на сообщения
Вы не можете редактировать свои сообщения
Вы не можете удалять свои сообщения
Вы не можете добавлять вложения

Перейти:  
Для Мосгорсуда, Роскомнадзора и рекламодателей: mosgorsud-torrent[собачка]yandex.ru
 Вход
ppkBB3cker v.2 © 2008-2014 @ PPK
[ Time : 3.063s | 14 Queries | GZIP : Off ]

Торрент трекер RUTOR.IN, Не можете зайти на rutor.org? Какой новый адрес рутор? Какое зеркало рутор? Не работает rutor.org и зеркала? Тогда наш торрент специально для вас. Rutor.in неофициальное зеркало rutor. В случае если у Вас заблокирован rutor или вдруг Вы не можете на него зайти, то Вы без труда сможете скачать бесплатно и без рекламы последние новинки кино, игр, сериалов и прочего у нас, на Rutor.in. Не нужно использовать прокси, чтобы зайти на рутор, достаточно воспользоваться нашим ресурсом. Все новые фильмы, игры, сериалы, книги и музыка за 2013 и 2014 годы через торрент бесплатно. Скачивайте фильмы в хорошем качестве, игры для пк, xbox, playstation без регистрации. У нас вы найдете новые Зарубежные сериалы и Русские сериалы 2013, 2014, 2015 годов. Оставайтесь с нами, качайте любимые фильмы, игры, сериалы, книги и музыку.