img image001 image001 image001 image001 image001 image001 image001 image001 image001 image001 image001 image001 image001 image001 image001

Planets Sun Sun Sun
Статистика раздачи
Автор: Nickolas3434 | Размер: 888.98 МБ | Добавлен: 12 июл 2015
Раздают: 275    Качают: 4
Скачать торрент
Скачать торрент
Описание торрента

СообщениеДобавлено: 12 июл 2015 

Девочка, хочешь сниматься в кино?

Оригинальное название: Девочка, хочешь сниматься в кино? Год выхода: 1977
Жанр: Детский, семейный, драма


Режиссер: Адольф Бергункер
В ролях: Марина Бугакова, Николай Волков, Любовь Виролайнен, Татьяна Кислярова, Ада Роговцева, Валентин Гафт, Любовь Соколова, Марина Трегубович, Наталия Четверикова, Валерий Кравченко, Елена Ставрогина


О фильме:
Дружная, веселая семья жила в Ленинграде: мама, работавшая врачом «Скорой помощи», папа, ветеринарный врач, и девятилетняя Инга… Но однажды пришла беда — при автомобильной катастрофе с машиной «Скорой помощи» трагически погибла мама. Но жизнь продолжалась, жизнь, в которой их осталось теперь двое — папа и Инга. Неожиданно девочке предложили сниматься в кино. Её ответ очень удивил всех — она отказалась от съёмок. Никто не знал, что недавно мама Инги погибла. Отец Инги приложил все усилия для того, чтобы привести дочь на студию, в надежде, что съемки отвлекут девочку от её горя. И не ошибся — спустя некоторое время она почувствовала себя настоящей актрисой в фильме «Первое лето»…



Страна: СССР, Ленфильм
Продолжительность: 01:17:36
Язык: Русский


Качество: SATRip
Видео: XviD, 1400 Кбит/с, 688x352, 25 кадр/с
Звук: AC3, 2 ch, 192 Кбит/с


Общее
Полное имя : E:Devochka.hochesh.snimatsya.v.kino.1977.SATRip.avi
Формат : AVI
Формат/Информация : Audio Video Interleave
Размер файла : 889 Мбайт
Продолжительность : 1 ч. 17 м.
Общий поток : 1601 Кбит/сек
Программа кодирования : VirtualDubModRus 1.5.10.2 (build 2542/release)
Библиотека кодирования : VirtualDubMod build 2542/release
Видео
Идентификатор : 0
Формат : MPEG-4 Visual
Профиль формата : Advanced Simple@L5
Параметр BVOP формата : 2
Параметр QPel формата : Нет
Параметр GMC формата : Без точки перехода
Параметр матрицы формата : Выборочная
Идентификатор кодека : XVID
Идентификатор кодека/Подсказка : XviD
Продолжительность : 1 ч. 17 м.
Битрейт : 1400 Кбит/сек
Ширина : 688 пикселей
Высота : 352 пикселя
Соотношение сторон : 1,955
Частота кадров : 25,000 кадров/сек
Цветовое пространство : YUV
Субдискретизация насыщенности : 4:2:0
Битовая глубина : 8 бит
Тип развёртки : Прогрессивная
Метод сжатия : С потерями
Бит/(Пиксели*Кадры) : 0.231
Размер потока : 777 Мбайт (87%)
Библиотека кодирования : XviD 73
Аудио
Идентификатор : 1
Формат : AC-3
Формат/Информация : Audio Coding 3
Расширение режима : CM (complete main)
Параметр Endianness формата : Big
Идентификатор кодека : 2000
Продолжительность : 1 ч. 17 м.
Вид битрейта : Постоянный
Битрейт : 192 Кбит/сек
Каналы : 2 канала
Расположение каналов : Front: L R
Частота : 48,0 КГц
Метод сжатия : С потерями
Размер потока : 107 Мбайт (12%)
Выравнивание : Разделение по промежуткам
Продолжительность промежутка : 40 мс. (1,00 видеокадр)
Время предзагрузки промежутка : 500 мс.



   Похожие торренты   Торрент   Размер 
В этой теме нет новых непрочитанных сообщений. Диафильм - Девочка из XXI века (1977) JPG, PDF, DJVU от RG Superdetki

258 | 5

42.25 МБ

В этой теме нет новых непрочитанных сообщений. Театр ужасов Кацуо Умэцу - Девочка-змея / Theatre of horrors Umezu Kazuo: Snake girl (2005) DVDRip от [КОЛОБОК и НЕТ В КИНО] | L1

2 | 2

580.39 МБ

В этой теме нет новых непрочитанных сообщений. Каким ты меня хочешь / Come mi vuoi (1997) SATRip

25 | 6

695.31 МБ

В этой теме нет новых непрочитанных сообщений. Девочка с синим ранцем / Девочка с голубым рюкзаком / La niña de la mochila azul (1979) DVDRip | Sub

20 | 6

699.52 МБ

В этой теме нет новых непрочитанных сообщений. Мальчик и девочка (2010) SATRip

6 | 4

701.22 МБ

В этой теме нет новых непрочитанных сообщений. Девочка ищет отца (1959) SATRip

249 | 17

699.94 МБ

В этой теме нет новых непрочитанных сообщений. ДиО.фильмы - Девочка Оля (2010) SATRip by maksnev82

1 | 4

80.55 МБ




Вы не можете начинать темы
Вы не можете отвечать на сообщения
Вы не можете редактировать свои сообщения
Вы не можете удалять свои сообщения
Вы не можете добавлять вложения

Перейти:  
Для Мосгорсуда, Роскомнадзора и рекламодателей: mosgorsud-torrent[собачка]yandex.ru
 Вход
ppkBB3cker v.2 © 2008-2014 @ PPK
[ Time : 0.026s | 15 Queries | GZIP : Off ]

Торрент трекер RUTOR.IN, Не можете зайти на rutor.org? Какой новый адрес рутор? Какое зеркало рутор? Не работает rutor.org и зеркала? Тогда наш торрент специально для вас. Rutor.in неофициальное зеркало rutor. В случае если у Вас заблокирован rutor или вдруг Вы не можете на него зайти, то Вы без труда сможете скачать бесплатно и без рекламы последние новинки кино, игр, сериалов и прочего у нас, на Rutor.in. Не нужно использовать прокси, чтобы зайти на рутор, достаточно воспользоваться нашим ресурсом. Все новые фильмы, игры, сериалы, книги и музыка за 2013 и 2014 годы через торрент бесплатно. Скачивайте фильмы в хорошем качестве, игры для пк, xbox, playstation без регистрации. У нас вы найдете новые Зарубежные сериалы и Русские сериалы 2013, 2014, 2015 годов. Оставайтесь с нами, качайте любимые фильмы, игры, сериалы, книги и музыку.