img image001 image001 image001 image001 image001 image001 image001 image001 image001 image001 image001 image001 image001 image001 image001

Planets Sun Sun Sun
Статистика раздачи
Автор: Nickolas3434 | Размер: 2.18 ГБ | Добавлен: 12 июл 2015
Раздают: 3599    Качают: 209
Скачать торрент
Скачать торрент
Описание торрента

СообщениеДобавлено: 12 июл 2015 


Информация о фильме
Оригинальное название: Батальонъ
Год выпуска: 2015
Жанр: Драма, военный, исторический
Выпущено: Россия, Корнер Ворк, Art Pictures Studio
Режиссер: Дмитрий Месхиев
В ролях: Мария Аронова, Мария Кожевникова, Ирина Рахманова, Марат Башаров, Янина Малинчик, Евгений Дятлов, Яков Шамшин, Алёна Кучкова, Валерия Шкирандо, Николай Аузин, Владимир Зайцев, Екатерина Вилкова, Сергей Тэсслер, Юлия Яновская (II), Дмитрий Шевченко, Артур Ваха
О фильме: Весна 1917-го года. Февральская революция изменила жизнь России и ход Великой войны. Государь уже отрёкся от престола. В окопах, где противостояние с немцами длится уже не один год, вовсю ведут свою пропаганду большевики. Они призывают к миру с неприятелем. Российское офицерство фактически ничего не может решить без одобрения так называемых солдатских комитетов. Армия находится на пороге окончательного разложения. По приказу Временного правительства для поднятия боевого духа создаётся женский «Батальон смерти» под командованием георгиевского кавалера Марии Бочкарёвой. Своей службой «Батальон смерти» подаёт пример храбрости, мужества и спокойствия, поднимает дух солдат и доказывает, что каждая из этих женщин-героев достойна звания воина русской армии.
Файл
Качество: WEB-DLRip (AVC)
Видео: MPEG-4 AVC, 2134 Кбит/с, 1024x426
Аудио: AC3, 6 ch, 384 Кбит/с
Размер: 2.18 ГБ
Продолжительность: 02:03:45
Перевод: Оригинал - [iTunes]
Семпл
x264 [info]: frame I:1617 Avg QP:15.46 size: 70682
x264 [info]: frame P:53823 Avg QP:18.48 size: 20775
x264 [info]: frame B:130205 Avg QP:20.27 size: 5746
x264 [info]: consecutive B-frames: 4.0% 8.7% 8.4% 65.1% 5.4% 6.7% 0.8% 0.6% 0.1% 0.2%
Общее
Уникальный идентификатор : 193609915131027201030812429727592861425 (0x91A7E9CE8F76C812A1614449427BCEF1)
Полное имя : D:РелизыBatalion.2015.O.WEB-DLRip.AVC.by_bog3417.mkv
Формат : Matroska
Версия формата : Version 2
Размер файла : 2,18 Гбайт
Продолжительность : 2 ч. 3 м.
Общий поток : 2520 Кбит/сек
Название фильма : Batalion.2015.O.WEB-DLRip.AVC.by_bog3417
Дата кодирования : UTC 2015-07-10 05:00:16
Программа кодирования : mkvmerge v7.9.0 ('Birds') 64bit
Библиотека кодирования : libebml v1.3.1 + libmatroska v1.4.2
Видео
Идентификатор : 1
Формат : AVC
Формат/Информация : Advanced Video Codec
Профиль формата : High@L4.1
Параметр CABAC формата : Да
Параметр ReFrames формата : 9 кадров
Идентификатор кодека : V_MPEG4/ISO/AVC
Продолжительность : 2 ч. 3 м.
Битрейт : 2134 Кбит/сек
Ширина : 1024 пикселя
Высота : 426 пикселей
Соотношение сторон : 2,40:1
Режим частоты кадров : Постоянный
Частота кадров : 25,000 кадров/сек
Цветовое пространство : YUV
Субдискретизация насыщенности : 4:2:0
Битовая глубина : 8 бит
Тип развёртки : Прогрессивная
Бит/(Пиксели*Кадры) : 0.196
Размер потока : 1,80 Гбайт (83%)
Заголовок : Batalion.2015.O.WEB-DLRip.AVC.by_bog3417
Библиотека кодирования : x264 core 146 r2538 121396c
Настройки программы : cabac=1 / ref=9 / deblock=1:-3:-3 / analyse=0x3:0x33 / me=umh / subme=10 / psy=1 / psy_rd=1.00:0.00 / mixed_ref=1 / me_range=32 / chroma_me=1 / trellis=2 / 8x8dct=1 / cqm=0 / deadzone=21,11 / fast_pskip=0 / chroma_qp_offset=-2 / threads=12 / lookahead_threads=2 / sliced_threads=0 / nr=0 / decimate=0 / interlaced=0 / bluray_compat=0 / constrained_intra=0 / bframes=9 / b_pyramid=2 / b_adapt=2 / b_bias=0 / direct=3 / weightb=1 / open_gop=0 / weightp=2 / keyint=250 / keyint_min=23 / scenecut=40 / intra_refresh=0 / rc=2pass / mbtree=0 / bitrate=2134 / ratetol=1.0 / qcomp=0.60 / qpmin=0 / qpmax=69 / qpstep=4 / cplxblur=20.0 / qblur=0.5 / ip_ratio=1.40 / pb_ratio=1.30 / aq=3:0.90
Язык : English
Default : Да
Forced : Нет
Аудио
Идентификатор : 2
Формат : AC-3
Формат/Информация : Audio Coding 3
Расширение режима : CM (complete main)
Параметр Endianness формата : Big
Идентификатор кодека : A_AC3
Продолжительность : 2 ч. 3 м.
Вид битрейта : Постоянный
Битрейт : 384 Кбит/сек
Каналы : 6 каналов
Расположение каналов : Front: L C R, Side: L R, LFE
Частота : 48,0 КГц
Метод сжатия : С потерями
Размер потока : 340 Мбайт (15%)
Язык : Russian
Default : Да
Forced : Нет
Меню
00:00:00.000 : en:00:00:00.000
00:07:52.000 : en:00:07:52.000
00:11:50.000 : en:00:11:50.000
00:17:16.000 : en:00:17:16.000
00:20:48.000 : en:00:20:48.000
00:24:37.000 : en:00:24:37.000
00:29:32.000 : en:00:29:32.000
00:36:08.000 : en:00:36:08.000
00:41:19.000 : en:00:41:19.000
00:46:39.000 : en:00:46:39.000
00:53:45.000 : en:00:53:45.000
01:02:01.000 : en:01:02:01.000
01:09:03.000 : en:01:09:03.000
01:17:57.000 : en:01:17:57.000
01:26:23.000 : en:01:26:23.000
01:34:31.000 : en:01:34:31.000
01:39:20.000 : en:01:39:20.000
01:44:13.000 : en:01:44:13.000
01:48:33.000 : en:01:48:33.000
01:52:00.000 : en:01:52:00.000




Релиз от:



   Похожие торренты   Торрент   Размер 
В этой теме нет новых непрочитанных сообщений. Батальонъ (2015) WEB-DLRip-AVC | iTunes

1182 | 15

978.98 МБ

В этой теме нет новых непрочитанных сообщений. Батальонъ (2015) WEB-DLRip | iTunes

2486 | 140

2.05 ГБ

В этой теме нет новых непрочитанных сообщений. Батальонъ (2015) WEB-DLRip | iTunes

18179 | 1278

1.37 ГБ

В этой теме нет новых непрочитанных сообщений. Батальонъ (2015) WEB-DLRip от Scarabey | iTunes

349 | 37

747.81 МБ

В этой теме нет новых непрочитанных сообщений. Батальонъ (2015) WEB-DLRip от Кинорадиомагия | КПК | iTunes

395 | 31

514 МБ

В этой теме нет новых непрочитанных сообщений. Батальонъ (2015) WEB-DLRip от Scarabey | iTunes

1204 | 42

1.45 ГБ

В этой теме нет новых непрочитанных сообщений. Батальонъ (2015) WEB-DLRip-AVC от Scarabey | iTunes

1109 | 125

2.06 ГБ




Вы не можете начинать темы
Вы не можете отвечать на сообщения
Вы не можете редактировать свои сообщения
Вы не можете удалять свои сообщения
Вы не можете добавлять вложения

Перейти:  
Для Мосгорсуда, Роскомнадзора и рекламодателей: mosgorsud-torrent[собачка]yandex.ru
 Вход
ppkBB3cker v.2 © 2008-2014 @ PPK
[ Time : 0.028s | 14 Queries | GZIP : Off ]

Торрент трекер RUTOR.IN, Не можете зайти на rutor.org? Какой новый адрес рутор? Какое зеркало рутор? Не работает rutor.org и зеркала? Тогда наш торрент специально для вас. Rutor.in неофициальное зеркало rutor. В случае если у Вас заблокирован rutor или вдруг Вы не можете на него зайти, то Вы без труда сможете скачать бесплатно и без рекламы последние новинки кино, игр, сериалов и прочего у нас, на Rutor.in. Не нужно использовать прокси, чтобы зайти на рутор, достаточно воспользоваться нашим ресурсом. Все новые фильмы, игры, сериалы, книги и музыка за 2013 и 2014 годы через торрент бесплатно. Скачивайте фильмы в хорошем качестве, игры для пк, xbox, playstation без регистрации. У нас вы найдете новые Зарубежные сериалы и Русские сериалы 2013, 2014, 2015 годов. Оставайтесь с нами, качайте любимые фильмы, игры, сериалы, книги и музыку.