img image001 image001 image001 image001 image001 image001 image001 image001 image001 image001 image001 image001 image001 image001 image001

Planets Sun Sun Sun
Статистика раздачи
Автор: Nickolas3434 | Размер: 2.2 ГБ | Добавлен: 12 июл 2015, 19:09
Раздают: 185    Качают: 15
Скачать торрент
Скачать торрент
Описание торрента

СообщениеДобавлено: 12 июл 2015, 19:09 


Информация о фильме
Название: Каникулы Кроша
Год выхода: 1980
Жанр: Детектив, детский, приключения
Режиссёр: Григорий Аронов
В ролях: Василий Фунтиков, Геннадий Кузнецов, Владимир Сирота, Владимир Сальников, Ольга Битюкова, Владимир Корецкий, Вера Новикова, Нина Тер-Осипян, Елена Тяпкина, Владимир Заманский, Любовь Стриженова
О фильме: Сергей Крашенинников (Крош) перешел в десятый класс. Лето впереди было долгое. Но думал ли Крош, что станет героем настоящего детектива? Во всяком случае, он этого очень хотел. Однажды, совершенно случайно, Крош познакомился с необычным человеком, коллекционером японских миниатюр - нэцке. Но вскоре появились подозрения, что коллекционер - это настоящий махинатор. И Крош решил вывести его на чистую воду...

Страна: СССР
Студия: ТО "Экран"
Продолжительность: 04:36:05
Перевод: Не требуется (оригинальный)
Файл
Формат: avi
Качество: DVDRip (2хDVD5)
Видео: XviD, 656х512, 25fps, 1000kbps
Аудио: MPEG Layer 3, 2ch, 48000Hz, 128kbps

General
Complete name : Kanikuly.Krosha.1980.O.DVDRip.2100.MediaClub.CurHaJI.avi
Format : AVI
Format/Info : Audio Video Interleave
Format profile : OpenDML
File size : 2.20 GiB
Duration : 4h 36mn
Overall bit rate : 1 139 Kbps
Movie name : Kanikuly.Krosha.1980.O.DVDRip.2100.MediaClub.CurHaJI
Writing application : Lavf53.13.0
Writing library : VirtualDub build 35491/release
Video
ID : 0
Format : MPEG-4 Visual
Format profile : Advanced Simple@L5
Format settings, BVOP : 2
Format settings, QPel : No
Format settings, GMC : No warppoints
Format settings, Matrix : Custom
Codec ID : XVID
Codec ID/Hint : XviD
Duration : 4h 36mn
Bit rate : 1000 Kbps
Width : 656 pixels
Height : 512 pixels
Display aspect ratio : 1.281
Frame rate : 25.000 fps
Color space : YUV
Chroma subsampling : 4:2:0
Bit depth : 8 bits
Scan type : Progressive
Compression mode : Lossy
Bits/(Pixel*Frame) : 0.119
Stream size : 1.93 GiB (88%)
Writing library : XviD 64
Audio
ID : 1
Format : MPEG Audio
Format version : Version 1
Format profile : Layer 3
Codec ID : 55
Codec ID/Hint : MP3
Duration : 4h 36mn
Bit rate mode : Constant
Bit rate : 128 Kbps
Channel(s) : 2 channels
Sampling rate : 48.0 KHz
Compression mode : Lossy
Stream size : 253 MiB (11%)
Alignment : Split accross interleaves
Interleave, duration : 40 ms (1.00 video frame)
Interleave, preload duration : 500 ms
Writing library : L3.99r
Encoding settings : -m s -V 4 -q 2 -lowpass 17 -b 128


Релиз от:



   Похожие торренты   Торрент   Размер 
В этой теме нет новых непрочитанных сообщений. Каникулы Кроша (4 серии из 4) (1980) DVDRip

17 | 4

2.67 ГБ

В этой теме нет новых непрочитанных сообщений. Каникулы Кроша [01-04 из 04] (1980) 2хDVD5

23 | 7

8.54 ГБ

В этой теме нет новых непрочитанных сообщений. Римские каникулы / Roman holiday (1953) DVDRip от MediaClub | КПК

250 | 5

514.04 МБ

В этой теме нет новых непрочитанных сообщений. Трям! Здравствуйте! (1980) DVDRip от MediaClub | КПК

228 | 9

37.77 МБ

В этой теме нет новых непрочитанных сообщений. Берем всё на себя (1980) DVDRip-AVC от MediaClub

28 | 1

1.15 ГБ

В этой теме нет новых непрочитанных сообщений. Однажды двадцать лет спустя (1980) DVDRip от MediaClub | КПК

16 | 2

333.59 МБ

В этой теме нет новых непрочитанных сообщений. Человек-слон / The Elephant Man (1980) DVDRip от MediaClub | КПК

141 | 3

533.47 МБ




Вы не можете начинать темы
Вы не можете отвечать на сообщения
Вы не можете редактировать свои сообщения
Вы не можете удалять свои сообщения
Вы не можете добавлять вложения

Перейти:  
Для Мосгорсуда, Роскомнадзора и рекламодателей: mosgorsud-torrent[собачка]yandex.ru
Настройки
ppkBB3cker v.2 © 2008-2014 @ PPK
[ Time : 0.022s | 15 Queries | GZIP : Off ]
CGP [Extreme] output time : 0.00016s | 0 Queries | GZIP : Off

Торрент трекер RUTOR.IN, Не можете зайти на rutor.org? Какой новый адрес рутор? Какое зеркало рутор? Не работает rutor.org и зеркала? Тогда наш торрент специально для вас. Rutor.in неофициальное зеркало rutor. В случае если у Вас заблокирован rutor или вдруг Вы не можете на него зайти, то Вы без труда сможете скачать бесплатно и без рекламы последние новинки кино, игр, сериалов и прочего у нас, на Rutor.in. Не нужно использовать прокси, чтобы зайти на рутор, достаточно воспользоваться нашим ресурсом. Все новые фильмы, игры, сериалы, книги и музыка за 2013 и 2014 годы через торрент бесплатно. Скачивайте фильмы в хорошем качестве, игры для пк, xbox, playstation без регистрации. У нас вы найдете новые Зарубежные сериалы и Русские сериалы 2013, 2014, 2015 годов. Оставайтесь с нами, качайте любимые фильмы, игры, сериалы, книги и музыку.