img image001 image001 image001 image001 image001 image001 image001 image001 image001 image001 image001 image001 image001 image001 image001

Planets Sun Sun Sun
Статистика раздачи
Автор: Nickolas3434 | Размер: 2.88 ГБ | Добавлен: 15 июл 2015
Раздают: 930    Качают: 52
Скачать торрент
Скачать торрент
Описание торрента

СообщениеДобавлено: 15 июл 2015 


Информация о фильме
Название: Мимино
Год выхода: 1977
Жанр: комедия
Режиссер: Георгий Данелия
В ролях: Вахтанг Кикабидзе, Фрунзик Мкртчян, Елена Проклова, Евгений Леонов, Руслан Микаберидзе, Закро Сахвадзе, Марина Дюжева, Арчил Гомиашвили, Валентина Титова, Владимир Басов
О фильме: «Мимино» — по-грузински «сокол». Так называют друзья героя фильма, летчика Валико Мизандари, по воле режиссера то и дело попадающего в смешные, грустные, а порой драматические ситуации. Работая в родном горном селении, Мимино перевозит на вертолете почту, фрукты, овец. Но он давно мечтает о настоящей, большой авиации. Наконец ему удается воплотить свою мечту в жизнь…
Страна: СССР
Продолжительность: 01:31:11
Перевод: не требуется
Файл
Кодек: MKV
Качество: HDTVRip 720p
Видео: MPEG-4 AVC, 3950 Кбит/с, 986x720
Звук: AC3, 6 ch, 384 Кбит/с, AC3, 1 ch, 192 Кбит/с

Общее
Уникальный идентификатор : 224179975683909778443502803186506560240 (0xA8A77E28CE9356FC8908547A2CF472F0)
Полное имя : D:Мимино_1977-HDTVRip.720p.mkv
Формат : Matroska
Версия формата : Version 2
Размер файла : 2,88 Гбайт
Продолжительность : 1 ч. 31 м.
Общий поток : 4528 Кбит/сек
Дата кодирования : UTC 2015-07-06 08:08:53
Программа кодирования : mkvmerge v5.8.0 ('No Sleep / Pillow') built on Sep 2 2012 15:37:04
Библиотека кодирования : libebml v1.2.3 + libmatroska v1.3.0
Видео
Идентификатор : 1
Формат : AVC
Формат/Информация : Advanced Video Codec
Профиль формата : High@L4.1
Параметр CABAC формата : Да
Параметр ReFrames формата : 11 кадров
Идентификатор кодека : V_MPEG4/ISO/AVC
Битрейт : 3950 Кбит/сек
Ширина : 986 пикселей
Высота : 720 пикселей
Соотношение сторон : 4:3
Режим частоты кадров : Переменный
Частота кадров в оригинале : 25,000 кадров/сек
Цветовое пространство : YUV
Субдискретизация насыщенности : 4:2:0
Битовая глубина : 8 бит
Тип развёртки : Прогрессивная
Бит/(Пиксели*Кадры) : 0.223
Библиотека кодирования : x264 core 146 r2538 121396c
Настройки программы : cabac=1 / ref=11 / deblock=1:-3:-2 / analyse=0x3:0x113 / me=umh / subme=10 / psy=1 / psy_rd=1.05:0.12 / mixed_ref=1 / me_range=32 / chroma_me=1 / trellis=2 / 8x8dct=1 / cqm=0 / deadzone=21,11 / fast_pskip=0 / chroma_qp_offset=-3 / threads=12 / lookahead_threads=2 / sliced_threads=0 / nr=0 / decimate=0 / interlaced=0 / bluray_compat=0 / constrained_intra=0 / bframes=8 / b_pyramid=2 / b_adapt=2 / b_bias=0 / direct=3 / weightb=1 / open_gop=0 / weightp=2 / keyint=250 / keyint_min=25 / scenecut=40 / intra_refresh=0 / rc_lookahead=40 / rc=2pass / mbtree=1 / bitrate=3950 / ratetol=1.0 / qcomp=0.65 / qpmin=0 / qpmax=69 / qpstep=4 / cplxblur=20.0 / qblur=0.5 / vbv_maxrate=50000 / vbv_bufsize=62500 / nal_hrd=none / filler=0 / ip_ratio=1.40 / aq=1:1.00
Язык : English
Default : Да
Forced : Нет
Основные цвета : BT.709
Характеристики трансфера : BT.709
Коэффициенты матрицы : BT.709
Аудио #1
Идентификатор : 2
Формат : AC-3
Формат/Информация : Audio Coding 3
Расширение режима : CM (complete main)
Параметр Endianness формата : Big
Идентификатор кодека : A_AC3
Продолжительность : 1 ч. 31 м.
Вид битрейта : Постоянный
Битрейт : 384 Кбит/сек
Каналы : 6 каналов
Расположение каналов : Front: L C R, Side: L R, LFE
Частота : 48,0 КГц
Битовая глубина : 16 бит
Метод сжатия : С потерями
Размер потока : 250 Мбайт (8%)
Язык : Russian
Default : Да
Forced : Нет
Аудио #2
Идентификатор : 3
Формат : AC-3
Формат/Информация : Audio Coding 3
Расширение режима : CM (complete main)
Параметр Endianness формата : Big
Идентификатор кодека : A_AC3
Продолжительность : 1 ч. 31 м.
Вид битрейта : Постоянный
Битрейт : 192 Кбит/сек
Каналы : 1 канал
Расположение каналов : Front: C
Частота : 48,0 КГц
Битовая глубина : 16 бит
Метод сжатия : С потерями
Задержка видео : 16 мс.
Размер потока : 125 Мбайт (4%)
Язык : Russian
Default : Нет
Forced : Нет

Сравнение с исходником: http://screenshotcomparison.com/comparison/133930/picture:0
Автор релиза:
На кинозал не перезаливать!



   Похожие торренты   Торрент   Размер 
В этой теме нет новых непрочитанных сообщений. Мимино (1977) HDTVRip 720p от New-Team

97 | 9

2.18 ГБ

В этой теме нет новых непрочитанных сообщений. Мимино (1977) HDTVRip-AVC от New-Team

30 | 5

1.46 ГБ

В этой теме нет новых непрочитанных сообщений. Мимино (1977) HDTVRip от New-Team

13 | 2

745.69 МБ

В этой теме нет новых непрочитанных сообщений. Мимино (1977) HDTVRip от New-Team

32 | 4

1.46 ГБ

В этой теме нет новых непрочитанных сообщений. Мимино (1977) HDTVRip от GeneralFilm

90 | 11

702.08 МБ

В этой теме нет новых непрочитанных сообщений. Мимино (1977) WEB-DLRip

41 | 3

1.37 ГБ

В этой теме нет новых непрочитанных сообщений. Мимино (1977) DVDRip

804 | 26

1.46 ГБ




Вы не можете начинать темы
Вы не можете отвечать на сообщения
Вы не можете редактировать свои сообщения
Вы не можете удалять свои сообщения
Вы не можете добавлять вложения

Перейти:  
Для Мосгорсуда, Роскомнадзора и рекламодателей: mosgorsud-torrent[собачка]yandex.ru
 Вход
ppkBB3cker v.2 © 2008-2014 @ PPK
[ Time : 0.053s | 14 Queries | GZIP : Off ]

Торрент трекер RUTOR.IN, Не можете зайти на rutor.org? Какой новый адрес рутор? Какое зеркало рутор? Не работает rutor.org и зеркала? Тогда наш торрент специально для вас. Rutor.in неофициальное зеркало rutor. В случае если у Вас заблокирован rutor или вдруг Вы не можете на него зайти, то Вы без труда сможете скачать бесплатно и без рекламы последние новинки кино, игр, сериалов и прочего у нас, на Rutor.in. Не нужно использовать прокси, чтобы зайти на рутор, достаточно воспользоваться нашим ресурсом. Все новые фильмы, игры, сериалы, книги и музыка за 2013 и 2014 годы через торрент бесплатно. Скачивайте фильмы в хорошем качестве, игры для пк, xbox, playstation без регистрации. У нас вы найдете новые Зарубежные сериалы и Русские сериалы 2013, 2014, 2015 годов. Оставайтесь с нами, качайте любимые фильмы, игры, сериалы, книги и музыку.