img image001 image001 image001 image001 image001 image001 image001 image001 image001 image001 image001 image001 image001 image001 image001

Planets Sun Sun Sun
Статистика раздачи
Автор: Nickolas3434 | Размер: 743.9 МБ | Добавлен: 15 июл 2015
Раздают: 28    Качают: 9
Скачать торрент
Скачать торрент
Описание торрента

СообщениеДобавлено: 15 июл 2015 


Информация о фильме
Название: Гусарская баллада
Год выхода: 1962
Жанр: Мюзикл, Комедия
Режиссер: Эльдар Рязанов
В ролях: Юрий Яковлев, Игорь Ильинский, Татьяна Шмыга, Антоний Ходурский, Алексей Полевой, Лариса Голубкина, Виктор Кольцов, Лев Поляков, Владимир Ширяев, Николай Крючков, ...
О фильме:
Исторический анекдот, удачно и к месту рассказанный, всегда найдет благодарных слушателей, а, тем более, зрителей. История девицы-корнета, желающей наравне с мужчинами защищать отечество, была счастливо вспомнена драматургом А. Гладковым, воплощена им в комедии «Давным-давно» и экранизирована Э. Рязановым в 1962 — к 150-летнему юбилею победы над Наполеоном.
Все удачно сложилось в этом киноводевиле: и знакомый сюжет, изобилующий приключениями, переодеваниями, интригами, и замечательная, использующая характерные жанровые модели — романса, баллады, гусарской песни — музыка Т. Хренникова, и звездный актерский ансамбль.

Страна: СССР (Киностудия "Мосфильм")
Продолжительность: 01:33:59
Перевод: Не требуется
Файл
Кодек: XviD
Качество: HDRip
Видео: 512x384 (1.33:1), 23.976 fps, XviD build 73 ~968 kbps avg, 0.206 bit/pixel
Звук: 48 kHz, MPEG Layer 3, 2 ch, ~128.00 kbps avg
Субтитры: Отсутствует
Семпл
General
Complete name : D:ТоррентМОИ РИПЫГусарская балладаGusarskaya.Ballada.1962.RUS.HDRip by shkiper.avi
Format : AVI
Format/Info : Audio Video Interleave
File size : 744 MiB
Duration : 1h 33mn
Overall bit rate : 1 106 Kbps
Writing application : VirtualDubMod 1.5.10.3 | www.virtualdub-fr.org || (build 2550/release)
Writing library : VirtualDubMod build 2550/release
Video
ID : 0
Format : MPEG-4 Visual
Format profile : Advanced Simple@L5
Format settings, BVOP : 1
Format settings, QPel : No
Format settings, GMC : No warppoints
Format settings, Matrix : Default (MPEG)
Codec ID : XVID
Codec ID/Hint : XviD
Duration : 1h 33mn
Bit rate : 969 Kbps
Width : 512 pixels
Height : 384 pixels
Display aspect ratio : 4:3
Frame rate : 23.976 fps
Color space : YUV
Chroma subsampling : 4:2:0
Bit depth : 8 bits
Scan type : Progressive
Compression mode : Lossy
Bits/(Pixel*Frame) : 0.206
Stream size : 652 MiB (88%)
Writing library : XviD 73
Audio
ID : 1
Format : MPEG Audio
Format version : Version 1
Format profile : Layer 3
Mode : Joint stereo
Mode extension : MS Stereo
Codec ID : 55
Codec ID/Hint : MP3
Duration : 1h 33mn
Bit rate mode : Constant
Bit rate : 128 Kbps
Channel(s) : 2 channels
Sampling rate : 48.0 KHz
Compression mode : Lossy
Stream size : 86.1 MiB (12%)
Alignment : Aligned on interleaves
Interleave, duration : 42 ms (1.00 video frame)
Interleave, preload duration : 504 ms
Writing library : LAME3.99r
Encoding settings : -m j -V 4 -q 2 -lowpass 17 -b 128

Рип от:



   Похожие торренты   Торрент   Размер 
В этой теме нет новых непрочитанных сообщений. Гусарская Баллада (1962) DVDRip-AVC от Youtracker

17 | 7

1.46 ГБ

В этой теме нет новых непрочитанных сообщений. Гусарская баллада (1962) BDRip от MediaClub

135 | 16

743.33 МБ

В этой теме нет новых непрочитанных сообщений. Гусарская баллада (1962) BDRip-AVC от ExKinoRay

41 | 12

2.6 ГБ

В этой теме нет новых непрочитанных сообщений. Гусарская баллада (1962) BDRip от HQCLUB

413 | 21

1.45 ГБ

В этой теме нет новых непрочитанных сообщений. Гусарская Баллада (1962) DVDRip от Youtracker

24 | 8

746.13 МБ

В этой теме нет новых непрочитанных сообщений. Гусарская баллада (1962) BDRip 1080p

30 | 9

7.76 ГБ

В этой теме нет новых непрочитанных сообщений. Гусарская Баллада (1962) DVDRip | Реставрация

84 | 12

1.46 ГБ




Вы не можете начинать темы
Вы не можете отвечать на сообщения
Вы не можете редактировать свои сообщения
Вы не можете удалять свои сообщения
Вы не можете добавлять вложения

Перейти:  
Для Мосгорсуда, Роскомнадзора и рекламодателей: mosgorsud-torrent[собачка]yandex.ru
 Вход
ppkBB3cker v.2 © 2008-2014 @ PPK
[ Time : 0.039s | 14 Queries | GZIP : Off ]

Торрент трекер RUTOR.IN, Не можете зайти на rutor.org? Какой новый адрес рутор? Какое зеркало рутор? Не работает rutor.org и зеркала? Тогда наш торрент специально для вас. Rutor.in неофициальное зеркало rutor. В случае если у Вас заблокирован rutor или вдруг Вы не можете на него зайти, то Вы без труда сможете скачать бесплатно и без рекламы последние новинки кино, игр, сериалов и прочего у нас, на Rutor.in. Не нужно использовать прокси, чтобы зайти на рутор, достаточно воспользоваться нашим ресурсом. Все новые фильмы, игры, сериалы, книги и музыка за 2013 и 2014 годы через торрент бесплатно. Скачивайте фильмы в хорошем качестве, игры для пк, xbox, playstation без регистрации. У нас вы найдете новые Зарубежные сериалы и Русские сериалы 2013, 2014, 2015 годов. Оставайтесь с нами, качайте любимые фильмы, игры, сериалы, книги и музыку.