img image001 image001 image001 image001 image001 image001 image001 image001 image001 image001 image001 image001 image001 image001 image001

Planets Sun Sun Sun
Статистика раздачи
Автор: Nickolas3434 | Размер: 4.05 ГБ | Добавлен: 17 июл 2015
Раздают: 610    Качают: 25
Скачать торрент
Скачать торрент
Описание торрента

СообщениеДобавлено: 17 июл 2015 


Информация о фильме
Название: Весна на Заречной улице
Год выхода: 1956
Жанр: Мелодрама
Режиссер: Марлен Хуциев, Феликс Миронер
В ролях: Нина Иванова, Николай Рыбников, Владимир Гуляев, Валентина Пугачёва, Геннадий Юхтин, Римма Шорохова, Николай Ключнев, Марина Гаврилко, Юрий Белов, Валентин Брылеев, Виктор Маркин, Евгений Коваленко, Александр Мороз, Люся Максимова, Жан Мельников
О фильме: История любви юной учительницы школы рабочей молодежи и ее ученика — одна из самых популярных отечественных мелодрам. Герой фильма, парень лихой и самоуверенный, лучший сталевар завода, не привык к отказам женщин. И вдруг его домогательства получают отпор!.. Поначалу он пытается играть в безразличие. Но проходит время — и он вдруг понимает, что к нему впервые пришло настоящее, глубокое чувство.
Страна: СССР, Одесская киностудия
Продолжительность: 01:30:03
Перевод: не требуется
Файл
Кодек: MKV
Качество: HDTVRip-AVC
Видео: MPEG-4, 6050 Кбит/с, 1152x650
Звук: AC3, 2 ch, 384 Кбит/с

raw [info]: 1152x650p 1:1 @ 25/1 fps (cfr)
x264 [info]: using SAR=1/1
x264 [info]: using cpu capabilities: MMX2 SSE2Fast SSSE3 SSE4.2 AVX
x264 [info]: profile High, level 4.1
x264 [info]: frame I:700 Avg QP:16.51 size:162446
x264 [info]: frame P:40244 Avg QP:19.61 size: 65627
x264 [info]: frame B:94148 Avg QP:22.96 size: 14149
========================================================================================================
Общее
Уникальный идентификатор : 177321736167065505489102836550394124623 (0x8566EC94EE079B45A0EFF4EE58CF194F)
Полное имя : D:Весна на Заречной улице_1956-HDTVRip-AVC.mkv
Формат : Matroska
Версия формата : Version 2
Размер файла : 4,05 Гбайт
Продолжительность : 1 ч. 30 м.
Общий поток : 6436 Кбит/сек
Название фильма : Весна на Заречной улице (1956)
Дата кодирования : UTC 2015-06-29 10:30:55
Программа кодирования : mkvmerge v5.8.0 ('No Sleep / Pillow') built on Sep 2 2012 15:37:04
Библиотека кодирования : libebml v1.2.3 + libmatroska v1.3.0
Видео
Идентификатор : 1
Формат : AVC
Формат/Информация : Advanced Video Codec
Профиль формата : High@L4.1
Параметр CABAC формата : Да
Параметр ReFrames формата : 11 кадров
Идентификатор кодека : V_MPEG4/ISO/AVC
Продолжительность : 1 ч. 30 м.
Битрейт : 6050 Кбит/сек
Ширина : 1152 пикселя
Высота : 650 пикселей
Соотношение сторон : 16:9
Режим частоты кадров : Постоянный
Частота кадров : 25,000 кадров/сек
Цветовое пространство : YUV
Субдискретизация насыщенности : 4:2:0
Битовая глубина : 8 бит
Тип развёртки : Прогрессивная
Бит/(Пиксели*Кадры) : 0.323
Размер потока : 3,73 Гбайт (92%)
Библиотека кодирования : x264 core 146 r2538 121396c
Настройки программы : cabac=1 / ref=11 / deblock=1:-3:-2 / analyse=0x3:0x113 / me=umh / subme=10 / psy=1 / psy_rd=1.05:0.14 / mixed_ref=1 / me_range=32 / chroma_me=1 / trellis=2 / 8x8dct=1 / cqm=0 / deadzone=21,11 / fast_pskip=0 / chroma_qp_offset=-3 / threads=12 / lookahead_threads=2 / sliced_threads=0 / nr=0 / decimate=0 / interlaced=0 / bluray_compat=0 / constrained_intra=0 / bframes=7 / b_pyramid=2 / b_adapt=2 / b_bias=0 / direct=3 / weightb=1 / open_gop=0 / weightp=2 / keyint=250 / keyint_min=25 / scenecut=40 / intra_refresh=0 / rc_lookahead=60 / rc=2pass / mbtree=1 / bitrate=6050 / ratetol=1.0 / qcomp=0.65 / qpmin=0 / qpmax=39 / qpstep=4 / cplxblur=20.0 / qblur=0.5 / ip_ratio=1.40 / aq=2:1.00
Язык : English
Default : Да
Forced : Нет
Основные цвета : BT.709
Характеристики трансфера : BT.709
Коэффициенты матрицы : BT.709
Аудио
Идентификатор : 2
Формат : AC-3
Формат/Информация : Audio Coding 3
Расширение режима : CM (complete main)
Параметр Endianness формата : Big
Идентификатор кодека : A_AC3
Продолжительность : 1 ч. 30 м.
Вид битрейта : Постоянный
Битрейт : 384 Кбит/сек
Каналы : 2 канала
Расположение каналов : Front: L R
Частота : 48,0 КГц
Битовая глубина : 16 бит
Метод сжатия : С потерями
Размер потока : 247 Мбайт (6%)
Язык : Russian
Default : Да
Forced : Нет

Релиз от:
Автор релиза:



   Похожие торренты   Торрент   Размер 
В этой теме нет новых непрочитанных сообщений. Весна на Заречной улице (1956) HDTVRip от ivandubskoj | Цветная версия

142 | 20

745.68 МБ

В этой теме нет новых непрочитанных сообщений. Весна на Заречной улице (1956) HDTVRip от ivandubskoj | Цветная версия

704 | 44

1.46 ГБ

В этой теме нет новых непрочитанных сообщений. Весна на Заречной улице (1956) HDTVRip 720p от ivandubskoj | Цветная версия

352 | 32

2.92 ГБ

В этой теме нет новых непрочитанных сообщений. Весна на Заречной улице (1956) SATRip-AVC | Цветная версия

25 | 7

1.4 ГБ

В этой теме нет новых непрочитанных сообщений. Весна на Заречной улице (1956) SATRip | Цветная версия

150 | 13

1.35 ГБ

В этой теме нет новых непрочитанных сообщений. Весна на Заречной улице (1956) HDTVRip-AVC от New-Team

95 | 12

1.46 ГБ

В этой теме нет новых непрочитанных сообщений. Весна на Заречной улице (1956) HDTVRip от New-Team

19 | 8

1.09 ГБ




Вы не можете начинать темы
Вы не можете отвечать на сообщения
Вы не можете редактировать свои сообщения
Вы не можете удалять свои сообщения
Вы не можете добавлять вложения

Перейти:  
Для Мосгорсуда, Роскомнадзора и рекламодателей: mosgorsud-torrent[собачка]yandex.ru
 Вход
ppkBB3cker v.2 © 2008-2014 @ PPK
[ Time : 0.021s | 17 Queries | GZIP : On ]

Торрент трекер RUTOR.IN, Не можете зайти на rutor.org? Какой новый адрес рутор? Какое зеркало рутор? Не работает rutor.org и зеркала? Тогда наш торрент специально для вас. Rutor.in неофициальное зеркало rutor. В случае если у Вас заблокирован rutor или вдруг Вы не можете на него зайти, то Вы без труда сможете скачать бесплатно и без рекламы последние новинки кино, игр, сериалов и прочего у нас, на Rutor.in. Не нужно использовать прокси, чтобы зайти на рутор, достаточно воспользоваться нашим ресурсом. Все новые фильмы, игры, сериалы, книги и музыка за 2013 и 2014 годы через торрент бесплатно. Скачивайте фильмы в хорошем качестве, игры для пк, xbox, playstation без регистрации. У нас вы найдете новые Зарубежные сериалы и Русские сериалы 2013, 2014, 2015 годов. Оставайтесь с нами, качайте любимые фильмы, игры, сериалы, книги и музыку.