img image001 image001 image001 image001 image001 image001 image001 image001 image001 image001 image001 image001 image001 image001 image001

Planets Sun Sun Sun
Статистика раздачи
Автор: Nickolas3434 | Размер: 5.96 ГБ | Добавлен: 17 июл 2015
Раздают: 670    Качают: 54
Скачать торрент
Скачать торрент
Описание торрента

СообщениеДобавлено: 17 июл 2015 


Информация о фильме
Название: Дума о Ковпаке
Год выхода: 1973-1976
Жанр: Военный, биография, драма, реальные события, ВОВ
Режиссер: Тимофей Левчук
В ролях: Константин Степанков, Валентин Белохвостик, Михаил Голубович, Николай Гринько, Юрий Саранцев, Николай Шутько, Зураб Капианидзе, Владимир Антонов, Михаил Кокшенов, Лидия Стилик, Николай Мерзликин, Петр Ластивка, Сильвия Сергейчикова, Виктор Пивненко, Виктор Плотников, Александр Ануров, Иван Гаврилюк, Яков Трипольский, Евгений Жариков, Виктор Лазарев (II), Юрий Демич, Валентин Кулик, Юрий Прокопович, Наталья Гвоздикова, Геннадий Фролов, Наталья Маркина, Нина Ильина, Аркадий Трощановский, Геннадий Нилов, Николай Пишванов, Виктор Чекмарёв, Станислав Бородокин, Анатолий Хостикоев, Валерий Алексеенко, Александр Луценко, Коста Туриев, Александр Мов
О фильме: Фильм первый — «Набат». Рассказывает о зарождении в начале Второй Мировой войны небольшого партизанского отряда и его развитии до мощного боевого соединения Первой Украинской партизанской дивизии под командованием С.А. Ковпака и комиссара С.В. Руднева. Тысячи километров прошла с боями дивизия. Помнят ее Западная Белоруссия, Неманский край, Восточная Пруссия, Чехословакия, Австрия. Ужас и панику наводили ковпаковцы на врага... Фильм второй — «Буран». Рассказывает о рейде ковпаковцев во вражеском тылу в конце 1941 и в 1942 году о жестоких боях партизан с фашистами на Сумщине при форсировании Днепра и Припяти, о знаменитой военной операции под г.Сарны, которая имела большое значение для победы наших войск под Сталинградом и вошла в историю Великой Отечественной войны под названием "Сарнский крест"... Фильм третий — «Карпаты, Карпаты…» Рассказывает о рейде партизанского соединения С.А. Ковпака в Карпаты летом 1943 года. Благодаря военному мастерству Ковпака и мужеству партизан проваливаются попытки фашистов окружить и уничтожить военные соединения партизан...
Страна: СССР
Продолжительность: 2 x ~ 01:32:00, 2 x ~ 01:10:00
Перевод: не требуется
Файл
Кодек: MKV
Качество: DVDRip-AVC
Видео: MPEG-4 AVC, 2200 Кбит/с, 696x430@782x430, 696x402@782x402, 696x390@782x390
Звук: AC3, 6 ch, 384 Кбит/с

Общее
Уникальный идентификатор : 205020008215064393272141549965656494466 (0x9A3D6AD44DA3BB1BB574A10F52CC9182)
Полное имя : R:МОИ РИПЫДума о Ковпаке_1973-76-DVDRip-AVC1.Набат.mkv
Формат : Matroska
Версия формата : Version 2
Размер файла : 1,66 Гбайт
Продолжительность : 1 ч. 31 м.
Общий поток : 2588 Кбит/сек
Дата кодирования : UTC 2015-05-04 00:37:49
Программа кодирования : mkvmerge v5.8.0 ('No Sleep / Pillow') built on Sep 2 2012 15:37:04
Библиотека кодирования : libebml v1.2.3 + libmatroska v1.3.0
Видео
Идентификатор : 1
Формат : AVC
Формат/Информация : Advanced Video Codec
Профиль формата : High@L4.1
Параметр CABAC формата : Да
Параметр ReFrames формата : 14 кадров
Идентификатор кодека : V_MPEG4/ISO/AVC
Продолжительность : 1 ч. 31 м.
Битрейт : 2200 Кбит/сек
Ширина : 696 пикселей
Высота : 430 пикселей
Соотношение сторон : 16:9
Соотношение сторон в оригинале : 1,85:1
Режим частоты кадров : Постоянный
Частота кадров : 25,000 кадров/сек
Цветовое пространство : YUV
Субдискретизация насыщенности : 4:2:0
Битовая глубина : 8 бит
Тип развёртки : Прогрессивная
Бит/(Пиксели*Кадры) : 0.294
Размер потока : 1,38 Гбайт (83%)
Библиотека кодирования : x264 core 142 r2431 ac76440
Настройки программы : cabac=1 / ref=14 / deblock=1:-2:-2 / analyse=0x3:0x133 / me=umh / subme=10 / psy=1 / psy_rd=1.05:0.15 / mixed_ref=1 / me_range=32 / chroma_me=1 / trellis=2 / 8x8dct=1 / cqm=0 / deadzone=21,11 / fast_pskip=0 / chroma_qp_offset=-3 / threads=12 / lookahead_threads=2 / sliced_threads=0 / nr=0 / decimate=0 / interlaced=0 / bluray_compat=0 / constrained_intra=0 / bframes=8 / b_pyramid=2 / b_adapt=2 / b_bias=0 / direct=3 / weightb=1 / open_gop=0 / weightp=2 / keyint=250 / keyint_min=25 / scenecut=40 / intra_refresh=0 / rc=2pass / mbtree=0 / bitrate=2200 / ratetol=1.0 / qcomp=0.65 / qpmin=0 / qpmax=39 / qpstep=4 / cplxblur=20.0 / qblur=0.5 / ip_ratio=1.40 / pb_ratio=1.30 / aq=1:1.00
Язык : English
Default : Да
Forced : Нет
Цветовой диапазон : Limited
Основные цвета : BT.601 PAL
Характеристики трансфера : BT.470 System B, BT.470 System G
Коэффициенты матрицы : BT.601
Аудио
Идентификатор : 2
Формат : AC-3
Формат/Информация : Audio Coding 3
Расширение режима : CM (complete main)
Параметр Endianness формата : Big
Идентификатор кодека : A_AC3
Продолжительность : 1 ч. 31 м.
Вид битрейта : Постоянный
Битрейт : 384 Кбит/сек
Каналы : 6 каналов
Расположение каналов : Front: L C R, Side: L R, LFE
Частота : 48,0 КГц
Битовая глубина : 16 бит
Метод сжатия : С потерями
Задержка видео : 2 с. 0 мс.
Размер потока : 252 Мбайт (15%)
Язык : Russian
Default : Да
Forced : Нет

Релиз от:
Автор релиза:



   Похожие торренты   Торрент   Размер 
В этой теме нет новых непрочитанных сообщений. Дума о Ковпаке: Набат (1973) DVDRip от ExKinoRay

60 | 19

1.48 ГБ

В этой теме нет новых непрочитанных сообщений. Дума о Ковпаке. Карпаты, Карпаты... [2x2] (1976) DVDRip от ExKinoRay

90 | 20

2.18 ГБ

В этой теме нет новых непрочитанных сообщений. Дума о Ковпаке: Буран (1975) DVDRip от ExKinoRay

340 | 31

1.48 ГБ

В этой теме нет новых непрочитанных сообщений. Дума про казака Голоту (1937) DVDRip от Generalfilm

22 | 4

708.84 МБ

В этой теме нет новых непрочитанных сообщений. Омен: Трилогия / The Omen: Trilogy (1976-1981) BDRip от -=HD-NET=- | КПК

20 | 5

1.32 ГБ

В этой теме нет новых непрочитанных сообщений. Хождение по мукам. Трилогия. (1957-1959) DVDRip-AVC от ExKinoRay

155 | 15

4.23 ГБ

В этой теме нет новых непрочитанных сообщений. Омен: Трилогия / The Omen: Trilogy (1976-1981) BDRip 720p

60 | 21

21.12 ГБ




Вы не можете начинать темы
Вы не можете отвечать на сообщения
Вы не можете редактировать свои сообщения
Вы не можете удалять свои сообщения
Вы не можете добавлять вложения

Перейти:  
Для Мосгорсуда, Роскомнадзора и рекламодателей: mosgorsud-torrent[собачка]yandex.ru
 Вход
ppkBB3cker v.2 © 2008-2014 @ PPK
[ Time : 0.085s | 15 Queries | GZIP : Off ]
CGP output time : 0.067s | 5 Queries | GZIP : Off

Торрент трекер RUTOR.IN, Не можете зайти на rutor.org? Какой новый адрес рутор? Какое зеркало рутор? Не работает rutor.org и зеркала? Тогда наш торрент специально для вас. Rutor.in неофициальное зеркало rutor. В случае если у Вас заблокирован rutor или вдруг Вы не можете на него зайти, то Вы без труда сможете скачать бесплатно и без рекламы последние новинки кино, игр, сериалов и прочего у нас, на Rutor.in. Не нужно использовать прокси, чтобы зайти на рутор, достаточно воспользоваться нашим ресурсом. Все новые фильмы, игры, сериалы, книги и музыка за 2013 и 2014 годы через торрент бесплатно. Скачивайте фильмы в хорошем качестве, игры для пк, xbox, playstation без регистрации. У нас вы найдете новые Зарубежные сериалы и Русские сериалы 2013, 2014, 2015 годов. Оставайтесь с нами, качайте любимые фильмы, игры, сериалы, книги и музыку.