img image001 image001 image001 image001 image001 image001 image001 image001 image001 image001 image001 image001 image001 image001 image001

Planets Sun Sun Sun
Статистика раздачи
Автор: Nickolas3434 | Размер: 2.54 ГБ | Добавлен: 17 июл 2015
Раздают: 1341    Качают: 29
Скачать торрент
Скачать торрент
Описание торрента

СообщениеДобавлено: 17 июл 2015 


Информация о фильме
Название: Через тернии к звездам
Год выхода: 1980
Жанр: Фантастика
Режиссер: Ричард Викторов
В ролях: Елена Метёлкина, Надежда Семенцова, Вадим Ледогоров, Улдис Лиелдидж, Елена Фадеева, Вацлав Дворжецкий, Александр Лазарев, Александр Михайлов, Борис Щербаков, Игорь Ледогоров, Глеб Стриженов, Игорь Ясулович, Владимир Федоров.
О фильме: В таинственных глубинах Вселенной патрульный звездолет «Пушкин» обнаруживает космический корабль неизвестной землянам конструкции. На корабле находят полностью разрушенную лабораторию по клонированию человекоподобных существ. Среди погибших инопланетян оказывается один выживший искусственный гуманоид — девушка Нийя. На Земле выясняется, что в мозг инопланетянки зашит пульт управления, призванный гарантировать точное выполнение «особой миссии». Он начинает действовать в тот момент, когда Нийа в составе земной экспедиции высаживается на своей родной планете Десса…
Страна: СССР, Киностудия им. М. Горького
Продолжительность: 02:22:53
Перевод: не требуется
Файл
Кодек: MKV
Качество: DVDRip-AVC
Видео: MPEG-4 AVC, 2100 Кбит/с, 698х572@1034х572
Звук: AC3, 6 ch, 384 Кбит/с




Общее
Уникальный идентификатор : 228056198145535407420376649651181220996 (0xAB9206AE90CAA1E387E5A3E8A6DE7484)
Полное имя : R:МОИ РИПЫЧерез тернии к звёздам_1980-DVDRip-AVCТерни-1.mkv
Формат : Matroska
Версия формата : Version 2
Размер файла : 1,39 Гбайт
Продолжительность : 1 ч. 14 м.
Общий поток : 2686 Кбит/сек
Дата кодирования : UTC 2015-07-15 14:20:46
Программа кодирования : mkvmerge v5.8.0 ('No Sleep / Pillow') built on Sep 2 2012 15:37:04
Библиотека кодирования : libebml v1.2.3 + libmatroska v1.3.0
Видео
Идентификатор : 1
Формат : AVC
Формат/Информация : Advanced Video Codec
Профиль формата : High@L4.1
Параметр CABAC формата : Да
Параметр ReFrames формата : 13 кадров
Идентификатор кодека : V_MPEG4/ISO/AVC
Продолжительность : 1 ч. 14 м.
Битрейт : 2300 Кбит/сек
Ширина : 698 пикселей
Высота : 572 пикселя
Соотношение сторон : 16:9
Соотношение сторон в оригинале : 16:9
Режим частоты кадров : Постоянный
Частота кадров : 25,000 кадров/сек
Цветовое пространство : YUV
Субдискретизация насыщенности : 4:2:0
Битовая глубина : 8 бит
Тип развёртки : Прогрессивная
Бит/(Пиксели*Кадры) : 0.230
Размер потока : 1,16 Гбайт (84%)
Библиотека кодирования : x264 core 146 r2538 121396c
Настройки программы : cabac=1 / ref=13 / deblock=1:-2:-2 / analyse=0x3:0x133 / me=umh / subme=10 / psy=1 / psy_rd=0.95:0.05 / mixed_ref=1 / me_range=32 / chroma_me=1 / trellis=2 / 8x8dct=1 / cqm=0 / deadzone=21,11 / fast_pskip=0 / chroma_qp_offset=-3 / threads=12 / lookahead_threads=2 / sliced_threads=0 / nr=0 / decimate=0 / interlaced=0 / bluray_compat=0 / constrained_intra=0 / bframes=8 / b_pyramid=2 / b_adapt=2 / b_bias=0 / direct=3 / weightb=1 / open_gop=0 / weightp=2 / keyint=250 / keyint_min=25 / scenecut=40 / intra_refresh=0 / rc_lookahead=60 / rc=2pass / mbtree=1 / bitrate=2300 / ratetol=1.0 / qcomp=0.65 / qpmin=0 / qpmax=69 / qpstep=4 / cplxblur=20.0 / qblur=0.5 / ip_ratio=1.40 / aq=1:1.00
Язык : English
Default : Да
Forced : Нет
Цветовой диапазон : Limited
Основные цвета : BT.601 PAL
Характеристики трансфера : BT.470 System B, BT.470 System G
Коэффициенты матрицы : BT.601
Аудио
Идентификатор : 2
Формат : AC-3
Формат/Информация : Audio Coding 3
Расширение режима : CM (complete main)
Параметр Endianness формата : Big
Идентификатор кодека : A_AC3
Продолжительность : 1 ч. 14 м.
Вид битрейта : Постоянный
Битрейт : 384 Кбит/сек
Каналы : 6 каналов
Расположение каналов : Front: L C R, Side: L R, LFE
Частота : 48,0 КГц
Битовая глубина : 16 бит
Метод сжатия : С потерями
Размер потока : 204 Мбайт (14%)
Язык : Russian
Default : Да
Forced : Нет

Сравнительный сэмпл Сэмпл-1, Сэмпл-2
Релиз от:
Автор релиза:



   Похожие торренты   Торрент   Размер 
В этой теме нет новых непрочитанных сообщений. Через тернии к звездам (1980) DVDRip-AVC | Новая версия

947 | 13

2.1 ГБ

В этой теме нет новых непрочитанных сообщений. Через тернии к звёздам (1980) DVDRip

44 | 10

1.29 ГБ

В этой теме нет новых непрочитанных сообщений. Через тернии к звёздам (1980) DVD9

8 | 4

7.05 ГБ

В этой теме нет новых непрочитанных сообщений. Через тернии к звездам (1980) DVD5 от Youtracker

3 | 4

4.37 ГБ

В этой теме нет новых непрочитанных сообщений. Через тернии к звёздам (1981) DVDRip

56 | 5

2.11 ГБ

В этой теме нет новых непрочитанных сообщений. RadioTrance - Через тернии к Звездам! (1996) MP3

95 | 6

114.86 МБ

В этой теме нет новых непрочитанных сообщений. VA - Через тернии к звёздам. Песни о космосе (2009) MP3

61 | 14

187.46 МБ




Вы не можете начинать темы
Вы не можете отвечать на сообщения
Вы не можете редактировать свои сообщения
Вы не можете удалять свои сообщения
Вы не можете добавлять вложения

Перейти:  
Для Мосгорсуда, Роскомнадзора и рекламодателей: mosgorsud-torrent[собачка]yandex.ru
 Вход
ppkBB3cker v.2 © 2008-2014 @ PPK
[ Time : 0.023s | 14 Queries | GZIP : On ]

Торрент трекер RUTOR.IN, Не можете зайти на rutor.org? Какой новый адрес рутор? Какое зеркало рутор? Не работает rutor.org и зеркала? Тогда наш торрент специально для вас. Rutor.in неофициальное зеркало rutor. В случае если у Вас заблокирован rutor или вдруг Вы не можете на него зайти, то Вы без труда сможете скачать бесплатно и без рекламы последние новинки кино, игр, сериалов и прочего у нас, на Rutor.in. Не нужно использовать прокси, чтобы зайти на рутор, достаточно воспользоваться нашим ресурсом. Все новые фильмы, игры, сериалы, книги и музыка за 2013 и 2014 годы через торрент бесплатно. Скачивайте фильмы в хорошем качестве, игры для пк, xbox, playstation без регистрации. У нас вы найдете новые Зарубежные сериалы и Русские сериалы 2013, 2014, 2015 годов. Оставайтесь с нами, качайте любимые фильмы, игры, сериалы, книги и музыку.