img image001 image001 image001 image001 image001 image001 image001 image001 image001 image001 image001 image001 image001 image001 image001

Planets Sun Sun Sun
Статистика раздачи
Автор: Nickolas3434 | Размер: 2.06 ГБ | Добавлен: 17 июл 2015
Раздают: 1109    Качают: 125
Скачать торрент
Скачать торрент
Описание торрента

СообщениеДобавлено: 17 июл 2015 


Год выпуска: 2015
Страна: Россия
Жанр: драма, военный, исторический
Перевод: Не требуется [iTunes]
Продолжительность: 02:03:45
Субтитры: нет
Режиссер: Дмитрий Месхиев
В ролях: Мария Аронова, Мария Кожевникова, Ирина Рахманова, Марат Башаров, Янина Малинчик, Евгений Дятлов, Алёна Кучкова, Валерия Шкирандо, Николай Аузин, Владимир Зайцев
Описание: Весна 1917-го года. Февральская революция изменила жизнь России и ход Великой войны. Государь уже отрёкся от престола. В окопах, где противостояние с немцами длится уже не один год, вовсю ведут свою пропаганду большевики. Они призывают к миру с неприятелем. Российское офицерство фактически ничего не может решить без одобрения так называемых солдатских комитетов. Армия находится на пороге окончательного разложения. По приказу Временного правительства для поднятия боевого духа создаётся женский «Батальон смерти» под командованием георгиевского кавалера Марии Бочкарёвой. Своей службой «Батальон смерти» подаёт пример храбрости, мужества и спокойствия, поднимает дух солдат и доказывает, что каждая из этих женщин-героев достойна звания воина русской армии.
Качество видео: WEB-DLRip-AVC
Формат видео: MKV
Видео: 1024х426, 25 fps, AVC, ~2000 kbps avg, 0.183 bit/pixel
Аудио: 48 kHz, AC3 Dolby Digital, 3/2 (L,C,R,l,r) + LFE ch, ~384 kbps
Релиз от:



БатальонBatal'on_2015_AVC_WEB-DLRip_[scarabey.org].mkv
Format : Matroska
Format version : Version 2
File size : 2.06 GiB
Duration : 2h 3mn
Overall bit rate : 2 385 Kbps
Encoded date : UTC 2015-07-12 13:56:38
Writing application : mkvmerge v6.1.0 ('Old Devil') built on Mar 4 2013 09:10:42
Writing library : libebml v1.3.0 + libmatroska v1.4.0
Video
ID : 1
Format : AVC
Format/Info : Advanced Video Codec
Format profile : High@L4.1
Format settings, CABAC : Yes
Format settings, ReFrames : 8 frames
Codec ID : V_MPEG4/ISO/AVC
Duration : 2h 3mn
Bit rate : 2 000 Kbps
Width : 1 024 pixels
Height : 426 pixels
Display aspect ratio : 2.35:1
Original display aspect ratio : 2.35:1
Frame rate mode : Constant
Frame rate : 25.000 fps
Color space : YUV
Chroma subsampling : 4:2:0
Bit depth : 8 bits
Scan type : Progressive
Bits/(Pixel*Frame) : 0.183
Stream size : 1.69 GiB (82%)
Writing library : x264 core 138 r2356 a1d3d17
Encoding settings : cabac=1 / ref=8 / deblock=1:-3:-2 / analyse=0x3:0x113 / me=umh / subme=10 / psy=1 / psy_rd=1.00:0.05 / mixed_ref=1 / me_range=32 / chroma_me=1 / trellis=2 / 8x8dct=1 / cqm=0 / deadzone=21,11 / fast_pskip=1 / chroma_qp_offset=-3 / threads=12 / lookahead_threads=2 / sliced_threads=0 / nr=0 / decimate=0 / interlaced=0 / bluray_compat=0 / constrained_intra=0 / bframes=8 / b_pyramid=2 / b_adapt=2 / b_bias=0 / direct=3 / weightb=1 / open_gop=0 / weightp=2 / keyint=250 / keyint_min=25 / scenecut=40 / intra_refresh=0 / rc_lookahead=40 / rc=2pass / mbtree=1 / bitrate=2000 / ratetol=1.0 / qcomp=0.60 / qpmin=0 / qpmax=69 / qpstep=4 / cplxblur=20.0 / qblur=0.5 / ip_ratio=1.40 / aq=1:1.00
Default : Yes
Forced : No
Audio
ID : 2
Format : AC-3
Format/Info : Audio Coding 3
Mode extension : CM (complete main)
Format settings, Endianness : Big
Codec ID : A_AC3
Duration : 2h 3mn
Bit rate mode : Constant
Bit rate : 384 Kbps
Channel(s) : 6 channels
Channel positions : Front: L C R, Side: L R, LFE
Sampling rate : 48.0 KHz
Bit depth : 16 bits
Compression mode : Lossy
Stream size : 340 MiB (16%)
Default : Yes
Forced : No




   Похожие торренты   Торрент   Размер 
В этой теме нет новых непрочитанных сообщений. Батальонъ (2015) WEB-DLRip от Scarabey | iTunes

1204 | 42

1.45 ГБ

В этой теме нет новых непрочитанных сообщений. Батальонъ (2015) WEB-DLRip от Scarabey | iTunes

349 | 37

747.81 МБ

В этой теме нет новых непрочитанных сообщений. Батальонъ (2015) WEB-DLRip от Scarabey | iTunes

911 | 34

2.18 ГБ

В этой теме нет новых непрочитанных сообщений. Батальонъ (2015) WEB-DLRip-AVC | iTunes

1182 | 15

978.98 МБ

В этой теме нет новых непрочитанных сообщений. Батальонъ (2015) WEB-DLRip-AVC | iTunes

3599 | 209

2.18 ГБ

В этой теме нет новых непрочитанных сообщений. Батальонъ (2015) WEB-DLRip | iTunes

2486 | 140

2.05 ГБ

В этой теме нет новых непрочитанных сообщений. Батальонъ (2015) WEB-DLRip | iTunes

18179 | 1278

1.37 ГБ




Вы не можете начинать темы
Вы не можете отвечать на сообщения
Вы не можете редактировать свои сообщения
Вы не можете удалять свои сообщения
Вы не можете добавлять вложения

Перейти:  
Для Мосгорсуда, Роскомнадзора и рекламодателей: mosgorsud-torrent[собачка]yandex.ru
 Вход
ppkBB3cker v.2 © 2008-2014 @ PPK
[ Time : 4.099s | 14 Queries | GZIP : On ]

Торрент трекер RUTOR.IN, Не можете зайти на rutor.org? Какой новый адрес рутор? Какое зеркало рутор? Не работает rutor.org и зеркала? Тогда наш торрент специально для вас. Rutor.in неофициальное зеркало rutor. В случае если у Вас заблокирован rutor или вдруг Вы не можете на него зайти, то Вы без труда сможете скачать бесплатно и без рекламы последние новинки кино, игр, сериалов и прочего у нас, на Rutor.in. Не нужно использовать прокси, чтобы зайти на рутор, достаточно воспользоваться нашим ресурсом. Все новые фильмы, игры, сериалы, книги и музыка за 2013 и 2014 годы через торрент бесплатно. Скачивайте фильмы в хорошем качестве, игры для пк, xbox, playstation без регистрации. У нас вы найдете новые Зарубежные сериалы и Русские сериалы 2013, 2014, 2015 годов. Оставайтесь с нами, качайте любимые фильмы, игры, сериалы, книги и музыку.