img image001 image001 image001 image001 image001 image001 image001 image001 image001 image001 image001 image001 image001 image001 image001

Planets Sun Sun Sun
Статистика раздачи
Автор: Nickolas3434 | Размер: 1.71 ГБ | Добавлен: 16 июл 2015
Раздают: 808    Качают: 22
Скачать торрент
Скачать торрент
Описание торрента

СообщениеДобавлено: 16 июл 2015 


Информация о фильме
Оригинальное название: Бармен
Год выпуска: 2015
Жанр: Комедия
Выпущено: Россия, Art Pictures Studio, ВайТ Медиа
Режиссер: Дина Штурманова
В ролях: Виталий Гогунский, Иван Охлобыстин, Юлия Паршута, Юрий Стоянов, Жанна Эппле, Константин Крюков, Антон Богданов, Ольга Бузова, Евгения Ярушникова, Константин Федоров
О фильме: Вадик мечтает изменить свою скучную жизнь, но страх неудачи и неуверенность в себе мешают парню двигаться к цели. Все меняется, когда Вадик случайно забредает в пустой бар и выпивает коктейль по рецепту загадочного Бармена. Отныне он — мистер Харизма, и весь мир лежит у его ног. Даже красавица Юля, о которой раньше он не смел и мечтать, обратила на него внимание. Новый коктейль — новый талант: сегодня Вадик — интеллектуал, завтра — король танцпола… Вот только действуют волшебные напитки недолго и имеют не очень приятный побочный эффект…

Файл
Качество: WEB-DLRip (AVC)
Видео: MPEG-4 AVC, 2277 Кбит/с, 1024x426, 24 кадр/с
Аудио: АС3, 6 ch, 384 Кбит/с
Размер: 1.71 ГБ
Продолжительность: 01:31:57
Язык: Русский
Озвучивание: iTunes Russia
Сохранены оригинальные чаптеры как на исходном WEB-DL.
x264 [info]: frame I:1478 Avg QP:15.26 size: 67339
x264 [info]: frame P:35989 Avg QP:17.90 size: 23323
x264 [info]: frame B:94948 Avg QP:19.67 size: 6646
x264 [info]: consecutive B-frames: 2.6% 7.0% 6.9% 70.8% 5.3% 5.7% 0.8% 0.5% 0.1% 0.4%
x264 [info]: mb I I16..4: 11.8% 57.9% 30.2%
x264 [info]: mb P I16..4: 0.8% 10.3% 2.1% P16..4: 28.8% 34.1% 11.6% 4.0% 0.4% skip: 7.9%
x264 [info]: mb B I16..4: 0.1% 1.1% 0.3% B16..8: 30.0% 21.5% 4.2% direct: 6.3% skip:36.5% L0:34.4% L1:47.1% BI:18.4%
x264 [info]: 8x8 transform intra:73.4% inter:49.0%
x264 [info]: direct mvs spatial:97.3% temporal:2.7%
x264 [info]: coded y,uvDC,uvAC intra: 91.0% 91.6% 77.7% inter: 21.9% 28.6% 17.0%
x264 [info]: i16 v,h,dc,p: 31% 10% 13% 46%
x264 [info]: i8 v,h,dc,ddl,ddr,vr,hd,vl,hu: 16% 10% 9% 8% 10% 12% 10% 13% 12%
x264 [info]: i4 v,h,dc,ddl,ddr,vr,hd,vl,hu: 22% 11% 5% 7% 12% 13% 10% 10% 10%
x264 [info]: i8c dc,h,v,p: 40% 20% 23% 18%
x264 [info]: Weighted P-Frames: Y:4.6% UV:3.3%
x264 [info]: ref P L0: 56.3% 9.3% 17.2% 4.8% 4.1% 2.6% 2.6% 1.4% 1.6% 0.1% 0.0%
x264 [info]: ref B L0: 83.9% 8.7% 2.9% 1.6% 1.1% 0.9% 0.5% 0.3%
x264 [info]: ref B L1: 96.3% 3.7%
x264 [info]: kb/s:2276.32

Общее
Уникальный идентификатор : 245944980580864918520281384964164085781 (0xB90747C03FD656EC9BE3CE84A702E815)
Полное имя : D:ЗагрузкиBarmen.2015.x264.WEB-DLRip.(AVC).ExKinoRay.mkv
Формат : Matroska
Версия формата : Version 2
Размер файла : 1,71 Гбайт
Продолжительность : 1 ч. 31 м.
Общий поток : 2662 Кбит/сек
Название фильма : Бармен.2015.Rip by: ollan
Дата кодирования : UTC 2015-07-16 04:36:50
Программа кодирования : mkvmerge v5.6.0 ('Kenya Kane') built on May 27 2012 16:44:04
Библиотека кодирования : libebml v1.2.3 + libmatroska v1.3.0
Видео
Идентификатор : 1
Формат : AVC
Формат/Информация : Advanced Video Codec
Профиль формата : High@L4.1
Параметр CABAC формата : Да
Параметр ReFrames формата : 9 кадров
Идентификатор кодека : V_MPEG4/ISO/AVC
Продолжительность : 1 ч. 31 м.
Битрейт : 2277 Кбит/сек
Ширина : 1024 пикселя
Высота : 426 пикселей
Соотношение сторон : 2,40:1
Режим частоты кадров : Постоянный
Частота кадров : 24,000 кадра/сек
Цветовое пространство : YUV
Субдискретизация насыщенности : 4:2:0
Битовая глубина : 8 бит
Тип развёртки : Прогрессивная
Бит/(Пиксели*Кадры) : 0.217
Размер потока : 1,43 Гбайт (84%)
Библиотека кодирования : x264 core 125 r2200 999b753
Настройки программы : cabac=1 / ref=9 / deblock=1:-3:-3 / analyse=0x3:0x133 / me=umh / subme=11 / psy=1 / psy_rd=1.00:0.10 / mixed_ref=1 / me_range=32 / chroma_me=1 / trellis=2 / 8x8dct=1 / cqm=0 / deadzone=21,11 / fast_pskip=0 / chroma_qp_offset=-3 / threads=12 / lookahead_threads=2 / sliced_threads=0 / nr=0 / decimate=0 / interlaced=0 / bluray_compat=0 / constrained_intra=0 / bframes=9 / b_pyramid=2 / b_adapt=2 / b_bias=0 / direct=3 / weightb=1 / open_gop=0 / weightp=2 / keyint=240 / keyint_min=23 / scenecut=40 / intra_refresh=0 / rc=2pass / mbtree=0 / bitrate=2277 / ratetol=1.0 / qcomp=0.60 / qpmin=0 / qpmax=69 / qpstep=4 / cplxblur=20.0 / qblur=0.5 / ip_ratio=1.40 / pb_ratio=1.30 / aq=1:1.00
Язык : Russian
Default : Да
Forced : Нет
Аудио
Идентификатор : 2
Формат : AC-3
Формат/Информация : Audio Coding 3
Расширение режима : CM (complete main)
Параметр Endianness формата : Big
Идентификатор кодека : A_AC3
Продолжительность : 1 ч. 31 м.
Вид битрейта : Постоянный
Битрейт : 384 Кбит/сек
Каналы : 6 каналов
Расположение каналов : Front: L C R, Side: L R, LFE
Частота : 48,0 КГц
Битовая глубина : 16 бит
Метод сжатия : С потерями
Размер потока : 253 Мбайт (14%)
Заголовок : iTunes Russia
Язык : Russian
Default : Да
Forced : Нет
Меню
00:00:00.000 : ru:Chapter 01
00:04:23.000 : ru:Chapter 02
00:10:33.000 : ru:Chapter 03
00:15:18.000 : ru:Chapter 04
00:21:28.000 : ru:Chapter 05
00:26:21.000 : ru:Chapter 06
00:30:32.000 : ru:Chapter 07
00:35:38.000 : ru:Chapter 08
00:39:54.000 : ru:Chapter 09
00:45:20.000 : ru:Chapter 10
00:51:52.000 : ru:Chapter 11
00:56:16.000 : ru:Chapter 12
01:02:50.000 : ru:Chapter 13
01:07:58.000 : ru:Chapter 14
01:14:00.000 : ru:Chapter 15
01:19:05.000 : ru:Chapter 16
01:25:17.000 : ru:Chapter 17





Релиз от: Rip by:



   Похожие торренты   Торрент   Размер 
В этой теме нет новых непрочитанных сообщений. Бармен (2015) WEB-DLRip-AVC от ExKinoRay | iTunes Russia

476 | 22

744.39 МБ

В этой теме нет новых непрочитанных сообщений. Бармен (2015) WEB-DLRip | iTunes

10650 | 1133

1.37 ГБ

В этой теме нет новых непрочитанных сообщений. Бармен (2015) WEB-DLRip-AVC | iTunes

3363 | 99

1.46 ГБ

В этой теме нет новых непрочитанных сообщений. Училка (2015) WEB-DLRip-AVC от ExKinoRay | iTunes Russia

23 | 0

2.14 ГБ

В этой теме нет новых непрочитанных сообщений. Богатырша (2015) WEB-DLRip-AVC от ExKinoRay | iTunes Russia

1946 | 114

745.35 МБ

В этой теме нет новых непрочитанных сообщений. Богатырша (2015) WEB-DLRip-AVC от ExKinoRay | iTunes Russia

1860 | 116

1.65 ГБ

В этой теме нет новых непрочитанных сообщений. Легенда / Legend (2015) WEB-DLRip-AVC от ExKinoRay | iTunes Russia

575 | 14

2.46 ГБ




Вы не можете начинать темы
Вы не можете отвечать на сообщения
Вы не можете редактировать свои сообщения
Вы не можете удалять свои сообщения
Вы не можете добавлять вложения

Перейти:  
Для Мосгорсуда, Роскомнадзора и рекламодателей: mosgorsud-torrent[собачка]yandex.ru
 Вход
ppkBB3cker v.2 © 2008-2014 @ PPK
[ Time : 0.038s | 15 Queries | GZIP : Off ]

cron