img image001 image001 image001 image001 image001 image001 image001 image001 image001 image001 image001 image001 image001 image001 image001

Planets Sun Sun Sun
Статистика раздачи
Автор: Nickolas3434 | Размер: 3.25 ГБ | Добавлен: 17 июл 2015
Раздают: 256    Качают: 21
Скачать торрент
Скачать торрент
Описание торрента

СообщениеДобавлено: 17 июл 2015 


Информация о фильме
Название: Завтрак на траве
Год выхода: 1979
Жанр: Детский, семейный, музыкальная комедия
Режиссер: Николай Александрович
В ролях: Сергей Проханов, Валентина Талызина, Татьяна Лебедькова, Людмила Гравес, Максим Широков, Александр Коптев, Игорь Князев, Александр Жданов, Татьяна Самсонова, Александр Демьяненко, Геннадий Ялович, Владимир Новиков, Ирина Юревич
О фильме: Музыкальный телефильм по мотивам рассказов Анатолия Черноусова. Замечательный фильм про жизнь в пионерском лагере, пионерское детство и походы, о том, как рабочий Иван Ковалев, назначенный вожатым пионерского лагеря, вполне обоснованно добивается любви и уважения своих подопечных. В фильме звучат песни на музыку Владимира Шаинского: «Пожалуйста, не жалуйся», «Солдат молоденький», «Золотая рыбка», «Картошка», «Между нами, дикарями», «Жара», «Если в лагере дожди», «Если Вам…», «Город», «Ловись, ловись».
Страна: СССР / ТО «Экран»
Продолжительность: 02:15:00
Перевод: не требуется
Файл
Кодек: MKV
Качество: DVDRip-AVC
Видео: MPEG-4 AVC, 3250 Кбит/с, 716x572@764x572
Звук: AC3, 2 ch, 192 Кбит/с


raw [info]: 716x572p 16:15 @ 25/1 fps (cfr)
x264 [info]: using SAR=16/15
x264 [info]: using cpu capabilities: MMX2 SSE2Fast SSSE3 SSE4.2 AVX
x264 [info]: profile High, level 4.1
x264 [info]: frame I:589 Avg QP:17.61 size: 71969
x264 [info]: frame P:25941 Avg QP:21.01 size: 31954
x264 [info]: frame B:73220 Avg QP:22.75 size: 10241
============================================================================================================
Общее
Уникальный идентификатор : 188840222007781001004728123397215124657 (0x8E114DC79A6606ACAB63E545BCD87CB1)
Полное имя : R:МОИ РИПЫЗавтрак на траве_1979-DVDRip-AVCЗавтрак-1.mkv
Формат : Matroska
Версия формата : Version 2
Размер файла : 1,60 Гбайт
Продолжительность : 1 ч. 6 м.
Общий поток : 3444 Кбит/сек
Дата кодирования : UTC 2015-06-25 08:39:42
Программа кодирования : mkvmerge v5.8.0 ('No Sleep / Pillow') built on Sep 2 2012 15:37:04
Библиотека кодирования : libebml v1.2.3 + libmatroska v1.3.0
Видео
Идентификатор : 1
Формат : AVC
Формат/Информация : Advanced Video Codec
Профиль формата : High@L4.1
Параметр CABAC формата : Да
Параметр ReFrames формата : 14 кадров
Идентификатор кодека : V_MPEG4/ISO/AVC
Продолжительность : 1 ч. 6 м.
Битрейт : 3250 Кбит/сек
Ширина : 716 пикселей
Высота : 572 пикселя
Соотношение сторон : 4:3
Соотношение сторон в оригинале : 4:3
Режим частоты кадров : Постоянный
Частота кадров : 25,000 кадров/сек
Цветовое пространство : YUV
Субдискретизация насыщенности : 4:2:0
Битовая глубина : 8 бит
Тип развёртки : Прогрессивная
Бит/(Пиксели*Кадры) : 0.317
Размер потока : 1,48 Гбайт (92%)
Библиотека кодирования : x264 core 146 r2538 121396c
Настройки программы : cabac=1 / ref=14 / deblock=1:-2:-2 / analyse=0x3:0x133 / me=umh / subme=10 / psy=1 / psy_rd=1.05:0.05 / mixed_ref=1 / me_range=32 / chroma_me=1 / trellis=2 / 8x8dct=1 / cqm=0 / deadzone=21,11 / fast_pskip=0 / chroma_qp_offset=-3 / threads=12 / lookahead_threads=2 / sliced_threads=0 / nr=0 / decimate=0 / interlaced=0 / bluray_compat=0 / constrained_intra=0 / bframes=7 / b_pyramid=2 / b_adapt=2 / b_bias=0 / direct=3 / weightb=1 / open_gop=0 / weightp=2 / keyint=250 / keyint_min=25 / scenecut=40 / intra_refresh=0 / rc=2pass / mbtree=0 / bitrate=3250 / ratetol=1.0 / qcomp=0.65 / qpmin=0 / qpmax=39 / qpstep=4 / cplxblur=20.0 / qblur=0.5 / ip_ratio=1.40 / pb_ratio=1.30 / aq=1:1.00
Язык : English
Default : Да
Forced : Нет
Основные цвета : BT.601 PAL
Характеристики трансфера : BT.470 System B, BT.470 System G
Коэффициенты матрицы : BT.601
Аудио
Идентификатор : 2
Формат : AC-3
Формат/Информация : Audio Coding 3
Расширение режима : CM (complete main)
Параметр Endianness формата : Big
Идентификатор кодека : A_AC3
Продолжительность : 1 ч. 6 м.
Вид битрейта : Постоянный
Битрейт : 192 Кбит/сек
Каналы : 2 канала
Расположение каналов : Front: L R
Частота : 48,0 КГц
Битовая глубина : 16 бит
Метод сжатия : С потерями
Размер потока : 91,3 Мбайт (6%)
Язык : Russian
Default : Да
Forced : Нет

Релиз от:
Автор релиза:



   Похожие торренты   Торрент   Размер 
В этой теме нет новых непрочитанных сообщений. Завтрак на траве [2 из 2] (1979) DVDRip от ExKinoRay

66 | 7

2.14 ГБ

В этой теме нет новых непрочитанных сообщений. Завтрак на траве (1979) DVDRip

93 | 15

1.46 ГБ

В этой теме нет новых непрочитанных сообщений. Лангуст на завтрак / Aragosta a colazione (1979) DVDRip | P

53 | 7

1.45 ГБ

В этой теме нет новых непрочитанных сообщений. Лангуст на завтрак / Aragosta a colazione (1979) DVD9 | P

1 | 4

5.84 ГБ

В этой теме нет новых непрочитанных сообщений. Великолепие в траве / Splendor in the Grass (1961) DVDRip

26 | 43

2.06 ГБ

В этой теме нет новых непрочитанных сообщений. Любовь на траве / L'amour par terre (1984) DVDRip | P, sub

64 | 26

2.07 ГБ

В этой теме нет новых непрочитанных сообщений. Завтрак у папы (2016) WEB-DLRip-AVC от ExKinoRay | iTunes Russia

701 | 15

1.42 ГБ




Вы не можете начинать темы
Вы не можете отвечать на сообщения
Вы не можете редактировать свои сообщения
Вы не можете удалять свои сообщения
Вы не можете добавлять вложения

Перейти:  
Для Мосгорсуда, Роскомнадзора и рекламодателей: mosgorsud-torrent[собачка]yandex.ru
 Вход
ppkBB3cker v.2 © 2008-2014 @ PPK
[ Time : 0.028s | 14 Queries | GZIP : Off ]

Торрент трекер RUTOR.IN, Не можете зайти на rutor.org? Какой новый адрес рутор? Какое зеркало рутор? Не работает rutor.org и зеркала? Тогда наш торрент специально для вас. Rutor.in неофициальное зеркало rutor. В случае если у Вас заблокирован rutor или вдруг Вы не можете на него зайти, то Вы без труда сможете скачать бесплатно и без рекламы последние новинки кино, игр, сериалов и прочего у нас, на Rutor.in. Не нужно использовать прокси, чтобы зайти на рутор, достаточно воспользоваться нашим ресурсом. Все новые фильмы, игры, сериалы, книги и музыка за 2013 и 2014 годы через торрент бесплатно. Скачивайте фильмы в хорошем качестве, игры для пк, xbox, playstation без регистрации. У нас вы найдете новые Зарубежные сериалы и Русские сериалы 2013, 2014, 2015 годов. Оставайтесь с нами, качайте любимые фильмы, игры, сериалы, книги и музыку.