img image001 image001 image001 image001 image001 image001 image001 image001 image001 image001 image001 image001 image001 image001 image001

Planets Sun Sun Sun
Статистика раздачи
Автор: Nickolas3434 | Размер: 1.77 ГБ | Добавлен: 17 июл 2015
Раздают: 130    Качают: 21
Скачать торрент
Скачать торрент
Описание торрента

СообщениеДобавлено: 17 июл 2015 


Информация о фильме
Название: Куколка
Год выхода: 1988
Жанр: Мелодрама, психологическая драма, спорт
Режиссер: Исаак Фридберг
В ролях: Светлана Засыпкина, Ирина Метлицкая, Владимир Меньшов, Наталья Назарова, Галина Стаханова, Игорь Букатко, Ерванд Арзуманян, Светлана Шершнева, Алиса Признякова, Любовь Калюжная, Максим Усачев
О фильме: Получив серьезную травму, юная гимнастка вынуждена прекратить выступления. Однако большой спорт травмировал ее не только физически, но и нравственно. Бывшая чемпионка, избалованная славой, не может сжиться с мыслью, что теперь она обычная школьница. Стремление самоутвердиться толкает ее на необдуманные и жестокие поступки...
Страна: СССР, Мосфильм
Продолжительность: 02:06:57
Перевод: не требуется
Файл
Кодек: MKV
Качество: DVDRip-AVC
Видео: MPEG-4 AVC, 1800 Кбит/с, 696x564@742x564
Звук: AC3, 2 ch, 192 Кбит/с

Общее
Уникальный идентификатор : 178323341999352663188945894490633522322 (0x8627D38FDDC7952E8EC149998B05CC92)
Полное имя : I:Куколка_1988-DVDRip-AVC.mkv
Формат : Matroska
Версия формата : Version 2
Размер файла : 1,77 Гбайт
Продолжительность : 2 ч. 6 м.
Общий поток : 1994 Кбит/сек
Дата кодирования : UTC 2015-07-09 17:31:39
Программа кодирования : mkvmerge v5.8.0 ('No Sleep / Pillow') built on Sep 2 2012 15:37:04
Библиотека кодирования : libebml v1.2.3 + libmatroska v1.3.0
Видео
Идентификатор : 1
Формат : AVC
Формат/Информация : Advanced Video Codec
Профиль формата : High@L4.1
Параметр CABAC формата : Да
Параметр ReFrames формата : 15 кадров
Идентификатор кодека : V_MPEG4/ISO/AVC
Продолжительность : 2 ч. 6 м.
Битрейт : 1800 Кбит/сек
Ширина : 696 пикселей
Высота : 564 пикселя
Соотношение сторон : 4:3
Режим частоты кадров : Постоянный
Частота кадров : 25,000 кадров/сек
Цветовое пространство : YUV
Субдискретизация насыщенности : 4:2:0
Битовая глубина : 8 бит
Тип развёртки : Прогрессивная
Бит/(Пиксели*Кадры) : 0.183
Размер потока : 1,56 Гбайт (88%)
Библиотека кодирования : x264 core 146 r2538 121396c
Настройки программы : cabac=1 / ref=15 / deblock=1:-2:-2 / analyse=0x3:0x133 / me=umh / subme=10 / psy=1 / psy_rd=1.05:0.17 / mixed_ref=1 / me_range=32 / chroma_me=1 / trellis=2 / 8x8dct=1 / cqm=0 / deadzone=21,11 / fast_pskip=0 / chroma_qp_offset=-3 / threads=12 / lookahead_threads=2 / sliced_threads=0 / nr=0 / decimate=0 / interlaced=0 / bluray_compat=0 / constrained_intra=0 / bframes=8 / b_pyramid=2 / b_adapt=2 / b_bias=0 / direct=3 / weightb=1 / open_gop=0 / weightp=2 / keyint=250 / keyint_min=25 / scenecut=40 / intra_refresh=0 / rc=2pass / mbtree=0 / bitrate=1800 / ratetol=1.0 / qcomp=0.65 / qpmin=0 / qpmax=69 / qpstep=4 / cplxblur=20.0 / qblur=0.5 / ip_ratio=1.40 / pb_ratio=1.30 / aq=1:1.00
Язык : English
Default : Да
Forced : Нет
Цветовой диапазон : Limited
Основные цвета : BT.601 PAL
Характеристики трансфера : BT.470 System B, BT.470 System G
Коэффициенты матрицы : BT.601
Аудио
Идентификатор : 2
Формат : AC-3
Формат/Информация : Audio Coding 3
Расширение режима : CM (complete main)
Параметр Endianness формата : Big
Идентификатор кодека : A_AC3
Продолжительность : 2 ч. 6 м.
Вид битрейта : Постоянный
Битрейт : 192 Кбит/сек
Каналы : 2 канала
Расположение каналов : Front: L R
Частота : 48,0 КГц
Битовая глубина : 16 бит
Метод сжатия : С потерями
Размер потока : 174 Мбайт (10%)
Язык : Russian
Default : Да
Forced : Нет

Сравнение с исходником: http://screenshotcomparison.com/compari ... /picture:0
Релиз от:
Автор релиза:



   Похожие торренты   Торрент   Размер 
В этой теме нет новых непрочитанных сообщений. Куколка (1988) DVDRip от Киномагия

194 | 15

1.45 ГБ

В этой теме нет новых непрочитанных сообщений. Медведь / L' Ours (1988) DVDRip - ExKinoRay

38 | 3

1.37 ГБ

В этой теме нет новых непрочитанных сообщений. Криминальный талант (1988) DVDRip-AVC от ExKinoRay

31 | 3

2.8 ГБ

В этой теме нет новых непрочитанных сообщений. Обвиняемые / The Accused (1988) DVDRip-AVC - ExKinoRay

4 | 1

2.52 ГБ

В этой теме нет новых непрочитанных сообщений. Хануссен / Hanussen (1988) DVDRip от ExKinoRay

7 | 3

1.46 ГБ

В этой теме нет новых непрочитанных сообщений. Президио / The Presidio (1988) DVDRip от ExKinoRay

0 | 2

1.47 ГБ

В этой теме нет новых непрочитанных сообщений. Изюминка / Punchline (1988) DVDRip-AVC от ExKinoRay | A

0 | 1

2.18 ГБ




Вы не можете начинать темы
Вы не можете отвечать на сообщения
Вы не можете редактировать свои сообщения
Вы не можете удалять свои сообщения
Вы не можете добавлять вложения

Перейти:  
Для Мосгорсуда, Роскомнадзора и рекламодателей: mosgorsud-torrent[собачка]yandex.ru
 Вход
ppkBB3cker v.2 © 2008-2014 @ PPK
[ Time : 0.028s | 15 Queries | GZIP : Off ]

Торрент трекер RUTOR.IN, Не можете зайти на rutor.org? Какой новый адрес рутор? Какое зеркало рутор? Не работает rutor.org и зеркала? Тогда наш торрент специально для вас. Rutor.in неофициальное зеркало rutor. В случае если у Вас заблокирован rutor или вдруг Вы не можете на него зайти, то Вы без труда сможете скачать бесплатно и без рекламы последние новинки кино, игр, сериалов и прочего у нас, на Rutor.in. Не нужно использовать прокси, чтобы зайти на рутор, достаточно воспользоваться нашим ресурсом. Все новые фильмы, игры, сериалы, книги и музыка за 2013 и 2014 годы через торрент бесплатно. Скачивайте фильмы в хорошем качестве, игры для пк, xbox, playstation без регистрации. У нас вы найдете новые Зарубежные сериалы и Русские сериалы 2013, 2014, 2015 годов. Оставайтесь с нами, качайте любимые фильмы, игры, сериалы, книги и музыку.
cron