img image001 image001 image001 image001 image001 image001 image001 image001 image001 image001 image001 image001 image001 image001 image001

Planets Sun Sun Sun
Статистика раздачи
Автор: Nickolas3434 | Размер: 2.6 ГБ | Добавлен: 19 июл 2015
Раздают: 17    Качают: 9
Скачать торрент
Скачать торрент
Описание торрента

СообщениеДобавлено: 19 июл 2015 


Информация о фильме
Название: Александр Маленький
Год выхода: 1981
Жанр: Драма, военный
Режиссер: Владимир Фокин
В ролях: Борис Токарев (I), Юрий Назаров, Михаил Кокшенов, Олаф Шнайдер, Уте Любош, Герри Вольф, Вальфриде Шмитт, Николай Скоробогатов, Олаф Боддойч, Яна Ленц, Бритт Бауманн, Штефан Март, Андреас Гутовски, Герд Михаэль Хеннеберг, Харальд Вармбрунн, Хайди Кипп, Станислав Молганов, Владимир Костин
О фильме: В мае 1945 года на освобожденной территории Германии в течение двух дней советские солдаты проводят операцию по спасению детей в небольшом городке Бланкенгайме от нападения группы вервольфовцев. Вместе с сотрудницей газеты Тессой Генцер они окажут помощь в организации детского дома, где начнется история грудного ребенка, подброшенного беженцами и названного советскими солдатами Александром Маленьким. В основе фильма подлинный факт.
Страна: СССР, Германия (ГДР)
Продолжительность: 01:34:06
Перевод: не требуется
Файл
Кодек: MKV
Качество: DVDRip-AVC
Видео: MPEG-4 AVC, 3500 Кбит/с, 700x570@744x570
Звук: AC3, 6 ch, 448 Кбит/с

raw [info]: 700x570p 16:15 @ 25/1 fps (cfr)
x264 [info]: using SAR=16/15
x264 [info]: using cpu capabilities: MMX2 SSE2Fast SSSE3 SSE4.2 AVX
x264 [info]: profile High, level 4.1
x264 [info]: frame I:764 Avg QP:17.26 size: 85323
x264 [info]: frame P:42050 Avg QP:20.75 size: 32206
x264 [info]: frame B:98336 Avg QP:22.82 size: 10684
=========================================================================================================
Общее
Уникальный идентификатор : 184952805103210358807472171382769626042 (0x8B249D541C32499B95932623A112ABBA)
Полное имя : D:Александр Маленький_1981-DVDRip-AVC.mkv
Формат : Matroska
Версия формата : Version 2
Размер файла : 2,60 Гбайт
Продолжительность : 1 ч. 34 м.
Общий поток : 3950 Кбит/сек
Дата кодирования : UTC 2015-05-17 17:18:25
Программа кодирования : mkvmerge v5.8.0 ('No Sleep / Pillow') built on Sep 2 2012 15:37:04
Библиотека кодирования : libebml v1.2.3 + libmatroska v1.3.0
Видео
Идентификатор : 1
Формат : AVC
Формат/Информация : Advanced Video Codec
Профиль формата : High@L4.1
Параметр CABAC формата : Да
Параметр ReFrames формата : 13 кадров
Идентификатор кодека : V_MPEG4/ISO/AVC
Продолжительность : 1 ч. 34 м.
Битрейт : 3500 Кбит/сек
Ширина : 700 пикселей
Высота : 570 пикселей
Соотношение сторон : 4:3
Соотношение сторон в оригинале : 4:3
Режим частоты кадров : Постоянный
Частота кадров : 25,000 кадров/сек
Цветовое пространство : YUV
Субдискретизация насыщенности : 4:2:0
Битовая глубина : 8 бит
Тип развёртки : Прогрессивная
Бит/(Пиксели*Кадры) : 0.351
Размер потока : 2,25 Гбайт (87%)
Библиотека кодирования : x264 core 146 r2538 121396c
Настройки программы : cabac=1 / ref=13 / deblock=1:-2:-2 / analyse=0x3:0x133 / me=umh / subme=10 / psy=1 / psy_rd=1.05:0.10 / mixed_ref=1 / me_range=32 / chroma_me=1 / trellis=2 / 8x8dct=1 / cqm=0 / deadzone=21,11 / fast_pskip=0 / chroma_qp_offset=-3 / threads=12 / lookahead_threads=2 / sliced_threads=0 / nr=0 / decimate=0 / interlaced=0 / bluray_compat=0 / constrained_intra=0 / bframes=7 / b_pyramid=2 / b_adapt=2 / b_bias=0 / direct=3 / weightb=1 / open_gop=0 / weightp=2 / keyint=250 / keyint_min=25 / scenecut=40 / intra_refresh=0 / rc=2pass / mbtree=0 / bitrate=3500 / ratetol=1.0 / qcomp=0.65 / qpmin=0 / qpmax=39 / qpstep=4 / cplxblur=20.0 / qblur=0.5 / ip_ratio=1.40 / pb_ratio=1.30 / aq=1:1.00
Язык : English
Default : Да
Forced : Нет
Основные цвета : BT.601 PAL
Характеристики трансфера : BT.470 System B, BT.470 System G
Коэффициенты матрицы : BT.601
Аудио
Идентификатор : 2
Формат : AC-3
Формат/Информация : Audio Coding 3
Расширение режима : CM (complete main)
Параметр Endianness формата : Big
Идентификатор кодека : A_AC3
Продолжительность : 1 ч. 34 м.
Вид битрейта : Постоянный
Битрейт : 448 Кбит/сек
Каналы : 6 каналов
Расположение каналов : Front: L C R, Side: L R, LFE
Частота : 48,0 КГц
Битовая глубина : 16 бит
Метод сжатия : С потерями
Размер потока : 302 Мбайт (11%)
Язык : Russian
Default : Да
Forced : Нет

Релиз от:
Автор релиза:



   Похожие торренты   Торрент   Размер 
В этой теме нет новых непрочитанных сообщений. Александр Маленький (1981) DVDRip

139 | 7

1.37 ГБ

В этой теме нет новых непрочитанных сообщений. Александр Маленький (1981) DVDRip от Youtracker

13 | 6

1.46 ГБ

В этой теме нет новых непрочитанных сообщений. Александр Маленький (1981) DVDRip от MediaClub | КПК

16 | 27

425.84 МБ

В этой теме нет новых непрочитанных сообщений. Александр Невский (1938) DVDRip-AVC от ExKinoRay

43 | 4

2.89 ГБ

В этой теме нет новых непрочитанных сообщений. Александр Розенбаум - Дискография (1981-2010) МР3

95 | 33

6.27 ГБ

В этой теме нет новых непрочитанных сообщений. Александр Новиков - Дискография (1981-2012) Mp3

76 | 32

6.43 ГБ

В этой теме нет новых непрочитанных сообщений. Александр Новиков - Коллекция (1981-2012) МР3 от IMAsound

289 | 55

6.81 ГБ




Вы не можете начинать темы
Вы не можете отвечать на сообщения
Вы не можете редактировать свои сообщения
Вы не можете удалять свои сообщения
Вы не можете добавлять вложения

Перейти:  
Для Мосгорсуда, Роскомнадзора и рекламодателей: mosgorsud-torrent[собачка]yandex.ru
 Вход
ppkBB3cker v.2 © 2008-2014 @ PPK
[ Time : 0.040s | 15 Queries | GZIP : Off ]

cron