img image001 image001 image001 image001 image001 image001 image001 image001 image001 image001 image001 image001 image001 image001 image001

Planets Sun Sun Sun
Статистика раздачи
Автор: Nickolas3434 | Размер: 3.51 ГБ | Добавлен: 19 июл 2015
Раздают: 8    Качают: 5
Скачать торрент
Скачать торрент
Описание торрента

СообщениеДобавлено: 19 июл 2015 


Информация о фильме
Название: Берег его жизни
Год выхода: 1984
Жанр: Историко-биографический
Режиссер: Юрий Соломин
В ролях: Юрий Соломин, Людмила Титова, Руфина Нифонтова, Всеволод Сафонов, Евгений Самойлов, Игорь Горбачев, Евгений Весник, Эммануил Виторган, Владимир Кенигсон, Борис Иванов, Александр Голобородько, Александр Вокач, Олег Куценко, Николай Верещенко, Петр Складчиков, Вячеслав Езепов, Валентина Каратаева
О фильме: Историко-биографический художественный телефильм о жизни выдающегося русского учёного и путешественника
Николая Николаевича Миклухо-Маклая. Сюжет строиться на истории любви ученого Маргариты Робертсон - дочери
бывшего премьер-министра Нового Южного Уэльса.
Страна: CCCP
Продолжительность: 3 x ~ 01:03:37
Перевод: не требуется
Файл
Кодек: MKV
Качество: SATRip-AVC
Видео: MPEG-4 AVC, 2375 Кбит/с, 710x572@758x572
Звук: AC3, 2 ch, 256 Кбит/с

raw [info]: 710x572p 16:15 @ 25/1 fps (cfr)
x264 [info]: using SAR=16/15
x264 [info]: using cpu capabilities: MMX2 SSE2Fast SSSE3 SSE4.2 AVX
x264 [info]: profile High, level 4.1
x264 [info]: frame I:484 Avg QP:15.61 size: 64118
x264 [info]: frame P:22651 Avg QP:19.58 size: 24342
x264 [info]: frame B:73504 Avg QP:21.33 size: 7689
============================================================================================================
Общее
Уникальный идентификатор : 173858716775308212212047316250738551360 (0x82CBF88B228ACB9CBFF51D4B24AFEA40)
Полное имя : I:МОИ РИПЫБерег его жизни_1984-SATRip-AVCБерег его жизни-1.mkv
Формат : Matroska
Версия формата : Version 2
Размер файла : 1,18 Гбайт
Продолжительность : 1 ч. 4 м.
Общий поток : 2633 Кбит/сек
Дата кодирования : UTC 2015-02-26 12:49:50
Программа кодирования : mkvmerge v5.8.0 ('No Sleep / Pillow') built on Sep 2 2012 15:37:04
Библиотека кодирования : libebml v1.2.3 + libmatroska v1.3.0
Видео
Идентификатор : 1
Формат : AVC
Формат/Информация : Advanced Video Codec
Профиль формата : High@L4.1
Параметр CABAC формата : Да
Параметр ReFrames формата : 14 кадров
Идентификатор кодека : V_MPEG4/ISO/AVC
Продолжительность : 1 ч. 4 м.
Битрейт : 2375 Кбит/сек
Ширина : 710 пикселей
Высота : 572 пикселя
Соотношение сторон : 4:3
Соотношение сторон в оригинале : 4:3
Режим частоты кадров : Постоянный
Частота кадров : 25,000 кадров/сек
Цветовое пространство : YUV
Субдискретизация насыщенности : 4:2:0
Битовая глубина : 8 бит
Тип развёртки : Прогрессивная
Бит/(Пиксели*Кадры) : 0.234
Размер потока : 1,05 Гбайт (88%)
Библиотека кодирования : x264 core 142 r2431 ac76440
Настройки программы : cabac=1 / ref=14 / deblock=1:-2:-2 / analyse=0x3:0x133 / me=umh / subme=10 / psy=1 / psy_rd=1.05:0.10 / mixed_ref=1 / me_range=32 / chroma_me=1 / trellis=2 / 8x8dct=1 / cqm=0 / deadzone=21,11 / fast_pskip=0 / chroma_qp_offset=-3 / threads=12 / lookahead_threads=2 / sliced_threads=0 / nr=0 / decimate=0 / interlaced=0 / bluray_compat=0 / constrained_intra=0 / bframes=7 / b_pyramid=2 / b_adapt=2 / b_bias=0 / direct=3 / weightb=1 / open_gop=0 / weightp=2 / keyint=250 / keyint_min=25 / scenecut=40 / intra_refresh=0 / rc=2pass / mbtree=0 / bitrate=2375 / ratetol=1.0 / qcomp=0.60 / qpmin=0 / qpmax=39 / qpstep=4 / cplxblur=20.0 / qblur=0.5 / ip_ratio=1.40 / pb_ratio=1.30 / aq=1:0.90
Язык : English
Default : Да
Forced : Нет
Основные цвета : BT.601 PAL
Характеристики трансфера : BT.470 System B, BT.470 System G
Коэффициенты матрицы : BT.601
colour_range : Limited
Аудио
Идентификатор : 2
Формат : AC-3
Формат/Информация : Audio Coding 3
Расширение режима : CM (complete main)
Параметр Endianness формата : Big
Идентификатор кодека : A_AC3
Продолжительность : 1 ч. 4 м.
Вид битрейта : Постоянный
Битрейт : 256 Кбит/сек
Каналы : 2 канала
Расположение каналов : Front: L R
Частота : 48,0 КГц
Битовая глубина : 16 бит
Метод сжатия : С потерями
Задержка видео : 100 мс.
Размер потока : 118 Мбайт (10%)
Язык : Russian
Default : Да
Forced : Нет

Релиз от:
Автор релиза:



   Похожие торренты   Торрент   Размер 
В этой теме нет новых непрочитанных сообщений. Берег его жизни (1984) DVDRip от Кинорадиомагия

150 | 15

2.05 ГБ

В этой теме нет новых непрочитанных сообщений. Берег левый, берег правый / Rive droite, rive gauche (1984) DVDRip-AVC

3 | 3

1.58 ГБ

В этой теме нет новых непрочитанных сообщений. Николай Караченцов. Нет жизни до и после... (2014) SATRip от ExKinoRay

24 | 9

762.75 МБ

В этой теме нет новых непрочитанных сообщений. Колье Шарлотты [01-03 из 03] (1984) SATRip-AVC от ExKinoRay

451 | 39

3.03 ГБ

В этой теме нет новых непрочитанных сообщений. Прохиндиада, или бег на месте (1984) SATRip-AVC от ExKinoRay

211 | 7

1.69 ГБ

В этой теме нет новых непрочитанных сообщений. Предел возможного (1984) SATRip-AVC от ExKinoRay

14 | 2

5.85 ГБ

В этой теме нет новых непрочитанных сообщений. В двух шагах от «Рая» (1984) SATRip от ExKinoRay

30 | 1

1.37 ГБ




Вы не можете начинать темы
Вы не можете отвечать на сообщения
Вы не можете редактировать свои сообщения
Вы не можете удалять свои сообщения
Вы не можете добавлять вложения

Перейти:  
Для Мосгорсуда, Роскомнадзора и рекламодателей: mosgorsud-torrent[собачка]yandex.ru
 Вход
ppkBB3cker v.2 © 2008-2014 @ PPK
[ Time : 0.044s | 16 Queries | GZIP : Off ]

cron