img image001 image001 image001 image001 image001 image001 image001 image001 image001 image001 image001 image001 image001 image001 image001

Planets Sun Sun Sun
Статистика раздачи
Автор: Nickolas3434 | Размер: 1.32 ГБ | Добавлен: 19 июл 2015
Раздают: 21    Качают: 12
Скачать торрент
Скачать торрент
Описание торрента

СообщениеДобавлено: 19 июл 2015 


Информация о фильме
Название: Тринадцать
Год выхода: 1936
Жанр: Драма, военный
Режиссер: Михаил Ромм
В ролях: Иван Новосельцев, Елена Кузьмина, Александр Чистяков, Андрей Файт, Иван Кузнецов, Пётр Масоха, Виктор Кулаков, Степан Крылов, Иван Юдин
О фильме: В аннотированном каталоге «Советские художественные фильмы» (1961) этот фильм определен по жанру как драма, хотя его можно считать не просто историко-революционным приключенческим, но и родоначальником некоего истерна (по аналогии с вестерном) — так как действие происходит в Средней Азии. Картина иногда обвинялась в слепом копировании американского образца — «Потерянный патруль» (1934) Джона Форда об отряде британцев, подвергающихся атакам арабов в месопотамской пустыне. Как бы то ни было, мастерство молодого режиссера (Ромму было 35 лет) и лаконизм выразительных средств (хотя это было связано, в основном, с трудными условиями съемок и малобюджетностью картины) превращают «Тринадцать» в строгую мужскую балладу о стойкости людей и их верности прежде всего своему воинскому долгу. Почти никто не заметил после выхода ленты на экран отсутствия в ней тринадцатого героя, которого должен был играть Николай Крючков (но не смог по состоянию здоровья).
Страна: СССР, Мосфильм
Продолжительность: 01:21:18
Перевод: не требуется
Файл
Кодек: MKV
Качество: SATRip-AVC
Видео: MPEG-4 AVC, 2200 Кбит/с, 660x538@704x538
Звук: AC3, 1 ch, 128 Кбит/с

raw [info]: 660x538p 16:15 @ 25/1 fps (cfr)
x264 [info]: using SAR=16/15
x264 [info]: using cpu capabilities: MMX2 SSE2Fast SSSE3 SSE4.2 AVX
x264 [info]: profile High, level 4.1
x264 [info]: frame I:765 Avg QP:15.81 size: 81750
x264 [info]: frame P:33690 Avg QP:18.41 size: 26188
x264 [info]: frame B:87519 Avg QP:20.99 size: 4536
==================================================================================================
Общее
Уникальный идентификатор : 218736117201809069216292174245504836118 (0xA48F0B36B9BF4799A1FA380B12556216)
Полное имя : D:Тринадцать_1936-SATRip-AVC.mkv
Формат : Matroska
Версия формата : Version 2
Размер файла : 1,32 Гбайт
Продолжительность : 1 ч. 21 м.
Общий поток : 2330 Кбит/сек
Дата кодирования : UTC 2015-07-17 17:18:36
Программа кодирования : mkvmerge v5.8.0 ('No Sleep / Pillow') built on Sep 2 2012 15:37:04
Библиотека кодирования : libebml v1.2.3 + libmatroska v1.3.0
Видео
Идентификатор : 1
Формат : AVC
Формат/Информация : Advanced Video Codec
Профиль формата : High@L4.1
Параметр CABAC формата : Да
Параметр ReFrames формата : 15 кадров
Идентификатор кодека : V_MPEG4/ISO/AVC
Продолжительность : 1 ч. 21 м.
Битрейт : 2200 Кбит/сек
Ширина : 660 пикселей
Высота : 538 пикселей
Соотношение сторон : 4:3
Режим частоты кадров : Постоянный
Частота кадров : 25,000 кадров/сек
Цветовое пространство : YUV
Субдискретизация насыщенности : 4:2:0
Битовая глубина : 8 бит
Тип развёртки : Прогрессивная
Бит/(Пиксели*Кадры) : 0.248
Размер потока : 1,22 Гбайт (93%)
Библиотека кодирования : x264 core 146 r2538 121396c
Настройки программы : cabac=1 / ref=15 / deblock=1:-2:-2 / analyse=0x3:0x133 / me=umh / subme=10 / psy=1 / psy_rd=1.05:0.13 / mixed_ref=1 / me_range=32 / chroma_me=1 / trellis=2 / 8x8dct=1 / cqm=0 / deadzone=21,11 / fast_pskip=0 / chroma_qp_offset=-3 / threads=12 / lookahead_threads=2 / sliced_threads=0 / nr=0 / decimate=0 / interlaced=0 / bluray_compat=0 / constrained_intra=0 / bframes=8 / b_pyramid=2 / b_adapt=2 / b_bias=0 / direct=3 / weightb=1 / open_gop=0 / weightp=2 / keyint=250 / keyint_min=25 / scenecut=40 / intra_refresh=0 / rc=2pass / mbtree=0 / bitrate=2200 / ratetol=1.0 / qcomp=0.65 / qpmin=0 / qpmax=69 / qpstep=4 / cplxblur=20.0 / qblur=0.5 / ip_ratio=1.40 / pb_ratio=1.30 / aq=1:1.00
Язык : English
Default : Да
Forced : Нет
Цветовой диапазон : Limited
Основные цвета : BT.601 PAL
Характеристики трансфера : BT.470 System B, BT.470 System G
Коэффициенты матрицы : BT.601
Аудио
Идентификатор : 2
Формат : AC-3
Формат/Информация : Audio Coding 3
Расширение режима : CM (complete main)
Параметр Endianness формата : Big
Идентификатор кодека : A_AC3
Продолжительность : 1 ч. 21 м.
Вид битрейта : Постоянный
Битрейт : 128 Кбит/сек
Каналы : 2 канала
Расположение каналов : Front: L R
Частота : 48,0 КГц
Битовая глубина : 16 бит
Метод сжатия : С потерями
Размер потока : 74,4 Мбайт (5%)
Язык : Russian
Default : Да
Forced : Нет

Видео сравнение с исходником: Сэмпл
Релиз от:
Автор релиза:



   Похожие торренты   Торрент   Размер 
В этой теме нет новых непрочитанных сообщений. Тринадцать (1936) DVDRip

8 | 3

1.07 ГБ

В этой теме нет новых непрочитанных сообщений. М - значит Убийца / M (1936) HDRip от ExKinoRay

9 | 3

1.46 ГБ

В этой теме нет новых непрочитанных сообщений. Тринадцать / 13 [01-04 из 24] (2014) SATRip

433 | 218

2.1 ГБ

В этой теме нет новых непрочитанных сообщений. Тринадцать / 13 [01-01 из 24] (2014) SATRip

155 | 28

521.64 МБ

В этой теме нет новых непрочитанных сообщений. Немецкий еженедельник 1936-1945 гг / A Newsreel History of The Third Reich - Die Deutsche Wochenschau (1936-1945) DVDRip

2 | 33

23.24 ГБ

В этой теме нет новых непрочитанных сообщений. Веселые мелодии: Коллекционное издание [1-50 из 50] / Looney Tunes: Ultimate Collector's Edition (1936-1966) BDRip-AVC от ExKinoRay

96 | 4

7.18 ГБ

В этой теме нет новых непрочитанных сообщений. Последняя ночь (1936) SATRip

3 | 2

772.26 МБ




Вы не можете начинать темы
Вы не можете отвечать на сообщения
Вы не можете редактировать свои сообщения
Вы не можете удалять свои сообщения
Вы не можете добавлять вложения

Перейти:  
Для Мосгорсуда, Роскомнадзора и рекламодателей: mosgorsud-torrent[собачка]yandex.ru
 Вход
ppkBB3cker v.2 © 2008-2014 @ PPK
[ Time : 0.522s | 16 Queries | GZIP : Off ]

Торрент трекер RUTOR.IN, Не можете зайти на rutor.org? Какой новый адрес рутор? Какое зеркало рутор? Не работает rutor.org и зеркала? Тогда наш торрент специально для вас. Rutor.in неофициальное зеркало rutor. В случае если у Вас заблокирован rutor или вдруг Вы не можете на него зайти, то Вы без труда сможете скачать бесплатно и без рекламы последние новинки кино, игр, сериалов и прочего у нас, на Rutor.in. Не нужно использовать прокси, чтобы зайти на рутор, достаточно воспользоваться нашим ресурсом. Все новые фильмы, игры, сериалы, книги и музыка за 2013 и 2014 годы через торрент бесплатно. Скачивайте фильмы в хорошем качестве, игры для пк, xbox, playstation без регистрации. У нас вы найдете новые Зарубежные сериалы и Русские сериалы 2013, 2014, 2015 годов. Оставайтесь с нами, качайте любимые фильмы, игры, сериалы, книги и музыку.