img image001 image001 image001 image001 image001 image001 image001 image001 image001 image001 image001 image001 image001 image001 image001

Planets Sun Sun Sun
Статистика раздачи
Автор: Nickolas3434 | Размер: 1.45 ГБ | Добавлен: 19 июл 2015
Раздают: 626    Качают: 36
Скачать торрент
Скачать торрент
Описание торрента

СообщениеДобавлено: 19 июл 2015 


Информация о фильме
Название: Усатый нянь
Год выхода: 1977
Жанр: комедия, семейный
Режиссер: Владимир Грамматиков
В ролях: Сергей Проханов, Людмила Шагалова, Елизавета Уварова, Марина Матвеенко, Сергей Бачурский, Валерий Кисленко, Феликс Кроль, Вадим Александров, Надежда Самсонова, Александр Сажин, Валентин Брылеев, Геннадий Ялович, Ольга Григорьева, Клавдия Козленкова, Леонид Трутнев, Александра Панова, Наталья Харахорина, Артур Берзиньш, Вячеслав Субачев, дети - Максим Топпер, Олег Корхин, Андрюша Пискунов, Дима Винаров, Катя Николаи, Антон Лещинский, Аня Мищенко, Костя Левин, Дима Дашевский, Света Левина, Саша Чирва, Кристина Девитт, Марина Торчинская, Таня и Наташа Томышевы, Владик Воронченко, Володя Пучков, Алеша Банник, Сережа Клоков...
О фильме: Молодой человек, лоботряс-допризывник Кеша Четвергов после окончания школы никак не может найти себе дело по душе, не способен он надолго задержаться ни на одной работе. (Да и к чему задерживаться, если скоро в армию?) Ну не хочет Кешка превращаться во взрослого человека! И вот к его проблеме подключились общественность ЖЭКа, участковый Евсеев и заведующая детским садом Марина Борисовна, обнаружившая у Четвергова талант воспитателя. Кеша становится объектом смелого эксперимента: его берут на работу в детский сад в качестве...ночной няни. Как говорится, талант не спрячешь!
Страна: СССР, Киностудия им. М. Горького
Продолжительность: 01:10:24
Перевод: не требуется
Файл
Кодек: MKV
Качество: DVDRip-AVC
Видео: MPEG-4 AVC, 2500 Кбит/с, 698x432@1024x432
Звук: AC3, 6 ch, 448 Кбит/с



Общее
Уникальный идентификатор : 231417672716358928250905489453064909940 (0xAE196C2C87D9DBAFA294E2DEAF73F474)
Полное имя : D:Усатый нянь_1977-DVDRip-AVC.mkv
Формат : Matroska
Версия формата : Version 2
Размер файла : 1,45 Гбайт
Продолжительность : 1 ч. 10 м.
Общий поток : 2949 Кбит/сек
Дата кодирования : UTC 2015-07-17 21:10:46
Программа кодирования : mkvmerge v5.8.0 ('No Sleep / Pillow') built on Sep 2 2012 15:37:04
Библиотека кодирования : libebml v1.2.3 + libmatroska v1.3.0
Видео
Идентификатор : 1
Формат : AVC
Формат/Информация : Advanced Video Codec
Профиль формата : High@L4.1
Параметр CABAC формата : Да
Параметр ReFrames формата : 15 кадров
Идентификатор кодека : V_MPEG4/ISO/AVC
Продолжительность : 1 ч. 10 м.
Битрейт : 2500 Кбит/сек
Ширина : 698 пикселей
Высота : 432 пикселя
Соотношение сторон : 2,40:1
Режим частоты кадров : Постоянный
Частота кадров : 25,000 кадров/сек
Цветовое пространство : YUV
Субдискретизация насыщенности : 4:2:0
Битовая глубина : 8 бит
Тип развёртки : Прогрессивная
Бит/(Пиксели*Кадры) : 0.332
Размер потока : 1,20 Гбайт (83%)
Библиотека кодирования : x264 core 146 r2538 121396c
Настройки программы : cabac=1 / ref=15 / deblock=1:-2:-2 / analyse=0x3:0x133 / me=umh / subme=10 / psy=1 / psy_rd=1.05:0.10 / mixed_ref=1 / me_range=32 / chroma_me=1 / trellis=2 / 8x8dct=1 / cqm=0 / deadzone=21,11 / fast_pskip=0 / chroma_qp_offset=-3 / threads=12 / lookahead_threads=2 / sliced_threads=0 / nr=0 / decimate=0 / interlaced=0 / bluray_compat=0 / constrained_intra=0 / bframes=9 / b_pyramid=2 / b_adapt=2 / b_bias=0 / direct=3 / weightb=1 / open_gop=0 / weightp=2 / keyint=250 / keyint_min=25 / scenecut=40 / intra_refresh=0 / rc=2pass / mbtree=0 / bitrate=2500 / ratetol=1.0 / qcomp=0.65 / qpmin=0 / qpmax=69 / qpstep=4 / cplxblur=20.0 / qblur=0.5 / ip_ratio=1.40 / pb_ratio=1.30 / aq=1:1.00
Язык : English
Default : Да
Forced : Нет
Цветовой диапазон : Limited
Основные цвета : BT.601 PAL
Характеристики трансфера : BT.470 System B, BT.470 System G
Коэффициенты матрицы : BT.601
Аудио
Идентификатор : 2
Формат : AC-3
Формат/Информация : Audio Coding 3
Расширение режима : CM (complete main)
Параметр Endianness формата : Big
Идентификатор кодека : A_AC3
Продолжительность : 1 ч. 10 м.
Вид битрейта : Постоянный
Битрейт : 448 Кбит/сек
Каналы : 6 каналов
Расположение каналов : Front: L C R, Side: L R, LFE
Частота : 48,0 КГц
Битовая глубина : 16 бит
Метод сжатия : С потерями
Задержка видео : 382 мс.
Размер потока : 226 Мбайт (15%)
Язык : Russian
Default : Да
Forced : Нет

Релиз от:
Автор релиза:



   Похожие торренты   Торрент   Размер 
В этой теме нет новых непрочитанных сообщений. Усатый нянь (1977) DVDRip от ExKinoRay

166 | 16

1.37 ГБ

В этой теме нет новых непрочитанных сообщений. Усатый нянь (1977) DVDRip от New-Team

66 | 11

743.98 МБ

В этой теме нет новых непрочитанных сообщений. Усатый нянь (1977) DVDRip от Alekxandr48

15 | 3

701.18 МБ

В этой теме нет новых непрочитанных сообщений. Усатый нянь (1977) DVDRip-AVC от New-Team

36 | 4

744.81 МБ

В этой теме нет новых непрочитанных сообщений. Усатый нянь (1977) DVD5 by гаврила

25 | 3

3.5 ГБ

В этой теме нет новых непрочитанных сообщений. Объяснение в любви (1977) DVDRip-AVC от ExKinoRay

71 | 14

2.56 ГБ

В этой теме нет новых непрочитанных сообщений. Чудовище / L'animal (1977) DVDRip от ExKinoRay

9 | 2

1.37 ГБ




Вы не можете начинать темы
Вы не можете отвечать на сообщения
Вы не можете редактировать свои сообщения
Вы не можете удалять свои сообщения
Вы не можете добавлять вложения

Перейти:  
Для Мосгорсуда, Роскомнадзора и рекламодателей: mosgorsud-torrent[собачка]yandex.ru
 Вход
ppkBB3cker v.2 © 2008-2014 @ PPK
[ Time : 0.031s | 14 Queries | GZIP : Off ]

Торрент трекер RUTOR.IN, Не можете зайти на rutor.org? Какой новый адрес рутор? Какое зеркало рутор? Не работает rutor.org и зеркала? Тогда наш торрент специально для вас. Rutor.in неофициальное зеркало rutor. В случае если у Вас заблокирован rutor или вдруг Вы не можете на него зайти, то Вы без труда сможете скачать бесплатно и без рекламы последние новинки кино, игр, сериалов и прочего у нас, на Rutor.in. Не нужно использовать прокси, чтобы зайти на рутор, достаточно воспользоваться нашим ресурсом. Все новые фильмы, игры, сериалы, книги и музыка за 2013 и 2014 годы через торрент бесплатно. Скачивайте фильмы в хорошем качестве, игры для пк, xbox, playstation без регистрации. У нас вы найдете новые Зарубежные сериалы и Русские сериалы 2013, 2014, 2015 годов. Оставайтесь с нами, качайте любимые фильмы, игры, сериалы, книги и музыку.