img image001 image001 image001 image001 image001 image001 image001 image001 image001 image001 image001 image001 image001 image001 image001

Planets Sun Sun Sun
Статистика раздачи
Автор: Nickolas3434 | Размер: 1.42 ГБ | Добавлен: 19 июл 2015
Раздают: 51    Качают: 14
Скачать торрент
Скачать торрент
Описание торрента

СообщениеДобавлено: 19 июл 2015 


Информация о фильме
Название: Ларец Марии Медичи
Год выхода: 1980
Жанр: Детектив
Режиссер: Рудольф Фрунтов
В ролях: Валерий Рыжаков, Клара Лучко, Эммануил Виторган, Евдокия Урусова, Анатолий Егоров, Рубен Симонов, Всеволод Сафонов, Сергей Мартынов, Даниил Нетребин, Лев Поляков, Станислав Захаров, Надежда Хиль, Леонид Оболенский, Герасим Лисициан, Николай Ерофеев, Виктор Зозулин, Алла Балтер, Павел Иванов, Зоя Василькова, Виктор Шульгин, Владимир Пицек, Виктор Маркин, Олег Чайка, Владимир Комиссаров, Настя Гладкова
О фильме: После, казалось бы, незначительного ограбления (у одинокой старушки похитили старинный ларец) бесследно исчезает и приехавший в Ленинград известный в мире антикварного бизнеса француз Андре Савиньи (он же - Андрей Свиньин, сын русских эмигрантов первой "волны", воевавший на стороне нацистов во время Второй мировой войны). Отыскать пропажи предстоит капитану милиции Люсину. По ходу расследования приходится выяснить не только мотивы преступления, но и погрузиться в далекое прошлое, разгадать тайну сокровищ альбигойцев...

Страна: СССР
Продолжительность: 01:25:26
Перевод: не требуется
Файл
Кодек: MKV
Качество: SATRip-AVC
Видео: MPEG-4 AVC, 2000 Кбит/с, 702x414@832x414
Звук: AC3, 2 ch, 384 Кбит/с

Общее
Уникальный идентификатор : 208629180446627701372177622276215669910 (0x9CF484C24845A55BA9BDE7CB42780496)
Полное имя : I:Ларец Марии Медичи_1980-SATRip-AVC.mkv
Формат : Matroska
Версия формата : Version 2
Размер файла : 1,42 Гбайт
Продолжительность : 1 ч. 25 м.
Общий поток : 2386 Кбит/сек
Дата кодирования : UTC 2015-04-02 03:55:00
Программа кодирования : mkvmerge v5.8.0 ('No Sleep / Pillow') built on Sep 2 2012 15:37:04
Библиотека кодирования : libebml v1.2.3 + libmatroska v1.3.0
Видео
Идентификатор : 1
Формат : AVC
Формат/Информация : Advanced Video Codec
Профиль формата : High@L4.1
Параметр CABAC формата : Да
Параметр ReFrames формата : 14 кадров
Идентификатор кодека : V_MPEG4/ISO/AVC
Продолжительность : 1 ч. 25 м.
Битрейт : 2000 Кбит/сек
Ширина : 702 пикселя
Высота : 414 пикселей
Соотношение сторон : 2,010
Режим частоты кадров : Постоянный
Частота кадров : 25,000 кадров/сек
Цветовое пространство : YUV
Субдискретизация насыщенности : 4:2:0
Битовая глубина : 8 бит
Тип развёртки : Прогрессивная
Бит/(Пиксели*Кадры) : 0.275
Размер потока : 1,17 Гбайт (82%)
Библиотека кодирования : x264 core 142 r2431 ac76440
Настройки программы : cabac=1 / ref=14 / deblock=1:-2:-2 / analyse=0x3:0x133 / me=umh / subme=10 / psy=1 / psy_rd=1.05:0.07 / mixed_ref=1 / me_range=32 / chroma_me=1 / trellis=2 / 8x8dct=1 / cqm=0 / deadzone=21,11 / fast_pskip=0 / chroma_qp_offset=-3 / threads=12 / lookahead_threads=2 / sliced_threads=0 / nr=0 / decimate=0 / interlaced=0 / bluray_compat=0 / constrained_intra=0 / bframes=7 / b_pyramid=2 / b_adapt=2 / b_bias=0 / direct=3 / weightb=1 / open_gop=0 / weightp=2 / keyint=250 / keyint_min=25 / scenecut=40 / intra_refresh=0 / rc=2pass / mbtree=0 / bitrate=2000 / ratetol=1.0 / qcomp=0.65 / qpmin=0 / qpmax=39 / qpstep=4 / cplxblur=20.0 / qblur=0.5 / ip_ratio=1.40 / pb_ratio=1.30 / aq=1:1.00
Язык : English
Default : Да
Forced : Нет
Цветовой диапазон : Limited
Основные цвета : BT.601 PAL
Характеристики трансфера : BT.470 System B, BT.470 System G
Коэффициенты матрицы : BT.601
Аудио
Идентификатор : 2
Формат : AC-3
Формат/Информация : Audio Coding 3
Расширение режима : CM (complete main)
Параметр Endianness формата : Big
Идентификатор кодека : A_AC3
Продолжительность : 1 ч. 25 м.
Вид битрейта : Постоянный
Битрейт : 384 Кбит/сек
Каналы : 2 канала
Расположение каналов : Front: L R
Частота : 48,0 КГц
Битовая глубина : 16 бит
Метод сжатия : С потерями
Задержка видео : 13 мс.
Размер потока : 235 Мбайт (16%)
Язык : Russian
Default : Да
Forced : Нет

Спасибо за исходник DVB - MIFAL
Релиз от:
Автор релиза:



   Похожие торренты   Торрент   Размер 
В этой теме нет новых непрочитанных сообщений. Ларец Марии Медичи (1980) DVDRip

116 | 22

1.21 ГБ

В этой теме нет новых непрочитанных сообщений. Ларец Марии Медичи (1980) DVDRip

153 | 8

1.25 ГБ

В этой теме нет новых непрочитанных сообщений. Ларец Марии Медичи (1980) DVD5

8 | 2

3.88 ГБ

В этой теме нет новых непрочитанных сообщений. Три дня на размышление (1980) SATRip-AVC от ExKinoRay

41 | 8

2.34 ГБ

В этой теме нет новых непрочитанных сообщений. Судьба Марии (2013) SATRip

54 | 8

1.24 ГБ

В этой теме нет новых непрочитанных сообщений. Алые погоны (1980) SATRip-AVC от ExKinoRay

215 | 53

3 ГБ

В этой теме нет новых непрочитанных сообщений. Сердце Марии [01-60] (2011) SATRip от RiperAM

37 | 12

28.49 ГБ




Вы не можете начинать темы
Вы не можете отвечать на сообщения
Вы не можете редактировать свои сообщения
Вы не можете удалять свои сообщения
Вы не можете добавлять вложения

Перейти:  
Для Мосгорсуда, Роскомнадзора и рекламодателей: mosgorsud-torrent[собачка]yandex.ru
 Вход
ppkBB3cker v.2 © 2008-2014 @ PPK
[ Time : 0.028s | 14 Queries | GZIP : Off ]

Торрент трекер RUTOR.IN, Не можете зайти на rutor.org? Какой новый адрес рутор? Какое зеркало рутор? Не работает rutor.org и зеркала? Тогда наш торрент специально для вас. Rutor.in неофициальное зеркало rutor. В случае если у Вас заблокирован rutor или вдруг Вы не можете на него зайти, то Вы без труда сможете скачать бесплатно и без рекламы последние новинки кино, игр, сериалов и прочего у нас, на Rutor.in. Не нужно использовать прокси, чтобы зайти на рутор, достаточно воспользоваться нашим ресурсом. Все новые фильмы, игры, сериалы, книги и музыка за 2013 и 2014 годы через торрент бесплатно. Скачивайте фильмы в хорошем качестве, игры для пк, xbox, playstation без регистрации. У нас вы найдете новые Зарубежные сериалы и Русские сериалы 2013, 2014, 2015 годов. Оставайтесь с нами, качайте любимые фильмы, игры, сериалы, книги и музыку.