img image001 image001 image001 image001 image001 image001 image001 image001 image001 image001 image001 image001 image001 image001 image001

Planets Sun Sun Sun
Статистика раздачи
Автор: Nickolas3434 | Размер: 1.73 ГБ | Добавлен: 19 июл 2015
Раздают: 395    Качают: 21
Скачать торрент
Скачать торрент
Описание торрента

СообщениеДобавлено: 19 июл 2015 


Информация о фильме
Название: Мачеха
Год выхода: 1973
Жанр: Драма, экранизация
Режиссер: Олег Бондарев
В ролях: Татьяна Доронина, Леонид Неведомский, Надежда Федосова, Владимир Самойлов, Елена Костерева, Александр Далекий, Тамара Совчи, Ирина Хлопкова, Виктор Маркин (I), Алексей Бахарь, Марина Гаврилко, Светлана Коновалова, Лидия Королёва, Вера Кузнецова
О фильме: Так случилось, что в семью Павла Олеванцева пришла печальная весть. Скоропостижно скончалась его бывшая жена, а восьмилетняя дочь Света осталась одна. Павел оказался в очень сложной ситуации: он давно женат на другой, у него растет ребенок. Несмотря на это, вместе с женой Шурой они решили взять девочку к себе.Обстановка в семье сложилась напряженная. Шура прониклась состраданием к несчастной девочке, но Света отказалась принимать новую маму. Однако со временем терпение и любовь помогли Шуре преодолеть все трудности и сделать так, чтобы девочка сама назвала мачеху матерью...

Страна: СССР / Мосфильм
Продолжительность: 01:24:14
Перевод: не требуется
Файл
Кодек: MKV
Качество: DVDRip-AVC
Видео: MPEG-4 AVC, 2750 Кбит/с, 712x434@1012x434
Звук: AC3, 2 ch, 192 Кбит/с

Общее
Уникальный идентификатор : 250780006580539531568083565223913315355 (0xBCAA78F00A0F003EA996000E25ADDC1B)
Полное имя : I:Мачеха_1973-DVDRip-AVC.mkv
Формат : Matroska
Версия формата : Version 2
Размер файла : 1,73 Гбайт
Продолжительность : 1 ч. 24 м.
Общий поток : 2943 Кбит/сек
Дата кодирования : UTC 2015-07-16 07:32:13
Программа кодирования : mkvmerge v5.8.0 ('No Sleep / Pillow') built on Sep 2 2012 15:37:04
Библиотека кодирования : libebml v1.2.3 + libmatroska v1.3.0
Видео
Идентификатор : 1
Формат : AVC
Формат/Информация : Advanced Video Codec
Профиль формата : High@L4.1
Параметр CABAC формата : Да
Параметр ReFrames формата : 15 кадров
Идентификатор кодека : V_MPEG4/ISO/AVC
Продолжительность : 1 ч. 24 м.
Битрейт : 2750 Кбит/сек
Ширина : 712 пикселей
Высота : 434 пикселя
Соотношение сторон : 2,35:1
Соотношение сторон в оригинале : 2,35:1
Режим частоты кадров : Постоянный
Частота кадров : 25,000 кадров/сек
Цветовое пространство : YUV
Субдискретизация насыщенности : 4:2:0
Битовая глубина : 8 бит
Тип развёртки : Прогрессивная
Бит/(Пиксели*Кадры) : 0.356
Размер потока : 1,58 Гбайт (91%)
Библиотека кодирования : x264 core 146 r2538 121396c
Настройки программы : cabac=1 / ref=15 / deblock=1:-2:-2 / analyse=0x3:0x133 / me=umh / subme=10 / psy=1 / psy_rd=1.05:0.16 / mixed_ref=1 / me_range=32 / chroma_me=1 / trellis=2 / 8x8dct=1 / cqm=0 / deadzone=21,11 / fast_pskip=0 / chroma_qp_offset=-3 / threads=12 / lookahead_threads=2 / sliced_threads=0 / nr=0 / decimate=0 / interlaced=0 / bluray_compat=0 / constrained_intra=0 / bframes=8 / b_pyramid=2 / b_adapt=2 / b_bias=0 / direct=3 / weightb=1 / open_gop=0 / weightp=2 / keyint=250 / keyint_min=25 / scenecut=40 / intra_refresh=0 / rc=2pass / mbtree=0 / bitrate=2750 / ratetol=1.0 / qcomp=0.67 / qpmin=0 / qpmax=69 / qpstep=4 / cplxblur=20.0 / qblur=0.5 / ip_ratio=1.40 / pb_ratio=1.30 / aq=1:1.00
Язык : English
Default : Да
Forced : Нет
Цветовой диапазон : Limited
Основные цвета : BT.601 PAL
Характеристики трансфера : BT.470 System B, BT.470 System G
Коэффициенты матрицы : BT.601
Аудио
Идентификатор : 2
Формат : AC-3
Формат/Информация : Audio Coding 3
Расширение режима : CM (complete main)
Параметр Endianness формата : Big
Идентификатор кодека : A_AC3
Продолжительность : 1 ч. 24 м.
Вид битрейта : Постоянный
Битрейт : 192 Кбит/сек
Каналы : 2 канала
Расположение каналов : Front: L R
Частота : 48,0 КГц
Битовая глубина : 16 бит
Метод сжатия : С потерями
Задержка видео : 150 мс.
Размер потока : 116 Мбайт (7%)
Язык : Russian
Default : Да
Forced : Нет

Релиз от:
Автор релиза:



   Похожие торренты   Торрент   Размер 
В этой теме нет новых непрочитанных сообщений. Мачеха (1973) DVDRip

102 | 8

1.3 ГБ

В этой теме нет новых непрочитанных сообщений. Мачеха (1973) DVDRip от MediaClub | КПК

46 | 11

377.73 МБ

В этой теме нет новых непрочитанных сообщений. Нейлон 100% (1973) DVDRip-AVC от ExKinoRay

202 | 7

1.64 ГБ

В этой теме нет новых непрочитанных сообщений. Кортик (1973) DVDRip-AVC от ExKinoRay

236 | 23

4.11 ГБ

В этой теме нет новых непрочитанных сообщений. Щелкунчик (1973) DVDRip от ExKinoRay

444 | 30

457.73 МБ

В этой теме нет новых непрочитанных сообщений. Молчаливый / Le Silencieux (1973) DVDRip от ExKinoRay

44 | 15

1.46 ГБ

В этой теме нет новых непрочитанных сообщений. Большая перемена (1973) DVDRip-AVC от ExKinoRay

406 | 69

4.57 ГБ




Вы не можете начинать темы
Вы не можете отвечать на сообщения
Вы не можете редактировать свои сообщения
Вы не можете удалять свои сообщения
Вы не можете добавлять вложения

Перейти:  
Для Мосгорсуда, Роскомнадзора и рекламодателей: mosgorsud-torrent[собачка]yandex.ru
 Вход
ppkBB3cker v.2 © 2008-2014 @ PPK
[ Time : 0.037s | 15 Queries | GZIP : Off ]
CGP output time : 0.034s | 5 Queries | GZIP : Off

Торрент трекер RUTOR.IN, Не можете зайти на rutor.org? Какой новый адрес рутор? Какое зеркало рутор? Не работает rutor.org и зеркала? Тогда наш торрент специально для вас. Rutor.in неофициальное зеркало rutor. В случае если у Вас заблокирован rutor или вдруг Вы не можете на него зайти, то Вы без труда сможете скачать бесплатно и без рекламы последние новинки кино, игр, сериалов и прочего у нас, на Rutor.in. Не нужно использовать прокси, чтобы зайти на рутор, достаточно воспользоваться нашим ресурсом. Все новые фильмы, игры, сериалы, книги и музыка за 2013 и 2014 годы через торрент бесплатно. Скачивайте фильмы в хорошем качестве, игры для пк, xbox, playstation без регистрации. У нас вы найдете новые Зарубежные сериалы и Русские сериалы 2013, 2014, 2015 годов. Оставайтесь с нами, качайте любимые фильмы, игры, сериалы, книги и музыку.