img image001 image001 image001 image001 image001 image001 image001 image001 image001 image001 image001 image001 image001 image001 image001

Planets Sun Sun Sun
Статистика раздачи
Автор: Nickolas3434 | Размер: 1.46 ГБ | Добавлен: 19 июл 2015
Раздают: 52    Качают: 10
Скачать торрент
Скачать торрент
Описание торрента

СообщениеДобавлено: 19 июл 2015 


Информация о фильме
Название: Неизвестный солдат
Год выхода: 1984
Жанр: Детектив, военный, приключения
Режиссёр: Григорий Аронов, Вадим Зобин
В ролях: Василий Фунтиков, Николай Гринько, Людмила Новоселова, Роберт Спиричев, Юрий Оськин, Иван Шабалтас, Игорь Класс, Павел Белозеров, Артур Богатов, Эрнст Романов, Николай Гаевский, Сергей Вещев, Наталья Хорохорина, Капитолина Ильенко, Стефания Станюта, Галина Макарова
О фильме: Не попав в институт, Сергей Крашенинников приезжает к деду в небольшой городок и начинает работать в дорожной строительной бригаде. В ходе работ строители обнаруживают солдатскую могилу. Сергею поручают выяснить личность погибшего. Он начинает поиск...

Страна: СССР
Студия: ТО "Экран"
Продолжительность: 03:25:52
Перевод: Не требуется (оригинальный)
Файл
Формат: avi
Качество: DVDRip (DVD9)
Видео: XviD, 640х480, 25fps, 875kbps
Аудио: MPEG Layer 3, 2ch, 48000Hz, 128kbps

General
Complete name : Neizvestnyi.Soldat.1984.O.DVDRip.1400.MediaClub.CurHaJI.avi
Format : AVI
Format/Info : Audio Video Interleave
File size : 1.46 GiB
Duration : 3h 25mn
Overall bit rate : 1 013 Kbps
Movie name : Neizvestnyi.Soldat.1984.O.DVDRip.1400.MediaClub.CurHaJI
Writing application : Lavf53.13.0
Writing library : VirtualDub build 35491/release
Video
ID : 0
Format : MPEG-4 Visual
Format profile : Advanced Simple@L5
Format settings, BVOP : 2
Format settings, QPel : No
Format settings, GMC : No warppoints
Format settings, Matrix : Custom
Codec ID : XVID
Codec ID/Hint : XviD
Duration : 3h 25mn
Bit rate : 875 Kbps
Width : 640 pixels
Height : 480 pixels
Display aspect ratio : 4:3
Frame rate : 25.000 fps
Color space : YUV
Chroma subsampling : 4:2:0
Bit depth : 8 bits
Scan type : Progressive
Compression mode : Lossy
Bits/(Pixel*Frame) : 0.114
Stream size : 1.26 GiB (86%)
Writing library : XviD 64
Audio
ID : 1
Format : MPEG Audio
Format version : Version 1
Format profile : Layer 3
Codec ID : 55
Codec ID/Hint : MP3
Duration : 3h 25mn
Bit rate mode : Constant
Bit rate : 128 Kbps
Channel(s) : 2 channels
Sampling rate : 48.0 KHz
Compression mode : Lossy
Delay relative to video : 4ms
Stream size : 188 MiB (13%)
Alignment : Split accross interleaves
Interleave, duration : 40 ms (1.00 video frame)
Interleave, preload duration : 500 ms


Релиз от:



   Похожие торренты   Торрент   Размер 
В этой теме нет новых непрочитанных сообщений. Неизвестный солдат [01-03 из 03] (1984) DVDRip от Киномагия

14 | 4

2.52 ГБ

В этой теме нет новых непрочитанных сообщений. Неизвестный солдат (1984) DVDRip-AVC от ExKinoRay

94 | 5

3.66 ГБ

В этой теме нет новых непрочитанных сообщений. Неизвестный солдат [01-03 из 03] (1984) DVD9

1 | 9

6.25 ГБ

В этой теме нет новых непрочитанных сообщений. Неизвестный солдат / Tuntematon sotilas (1985) DVDRip от Киномагия

5 | 2

2.54 ГБ

В этой теме нет новых непрочитанных сообщений. Неизвестный солдат / Tuntematon sotilas / The Unknown Soldier (1955) DVD9

1 | 3

7.68 ГБ

В этой теме нет новых непрочитанных сообщений. Гитлер: Неизвестный солдат 1914-1918 / The Unknown Soldier 1914-1918 (2004) DVDRip от Pshichko66

491 | 53

1.27 ГБ

В этой теме нет новых непрочитанных сообщений. Неизвестный / Unknown (2011) BDRip-AVC от MediaClub | D, A

437 | 17

4.33 ГБ




Вы не можете начинать темы
Вы не можете отвечать на сообщения
Вы не можете редактировать свои сообщения
Вы не можете удалять свои сообщения
Вы не можете добавлять вложения

Перейти:  
Для Мосгорсуда, Роскомнадзора и рекламодателей: mosgorsud-torrent[собачка]yandex.ru
 Вход
ppkBB3cker v.2 © 2008-2014 @ PPK
[ Time : 0.020s | 14 Queries | GZIP : Off ]

Торрент трекер RUTOR.IN, Не можете зайти на rutor.org? Какой новый адрес рутор? Какое зеркало рутор? Не работает rutor.org и зеркала? Тогда наш торрент специально для вас. Rutor.in неофициальное зеркало rutor. В случае если у Вас заблокирован rutor или вдруг Вы не можете на него зайти, то Вы без труда сможете скачать бесплатно и без рекламы последние новинки кино, игр, сериалов и прочего у нас, на Rutor.in. Не нужно использовать прокси, чтобы зайти на рутор, достаточно воспользоваться нашим ресурсом. Все новые фильмы, игры, сериалы, книги и музыка за 2013 и 2014 годы через торрент бесплатно. Скачивайте фильмы в хорошем качестве, игры для пк, xbox, playstation без регистрации. У нас вы найдете новые Зарубежные сериалы и Русские сериалы 2013, 2014, 2015 годов. Оставайтесь с нами, качайте любимые фильмы, игры, сериалы, книги и музыку.