img image001 image001 image001 image001 image001 image001 image001 image001 image001 image001 image001 image001 image001 image001 image001

Planets Sun Sun Sun
Статистика раздачи
Автор: Nickolas3434 | Размер: 1.51 ГБ | Добавлен: 22 июл 2015
Раздают: 203    Качают: 19
Скачать торрент
Скачать торрент
Описание торрента

СообщениеДобавлено: 22 июл 2015 


Информация о фильме
Название: Опекун
Год выхода: 1970
Жанр: Комедия
Режиссер: Альберт Мкртчян, Эдгар Ходжикян
В ролях: Георгий Вицин, Александр Збруев, Клара Лучко, Константин Сорокин, Эммануил Геллер, Ирина Мурзаева, Николай Сморчков, Алексей Бахарь, Герман Качин, Семён Сафонов, Станислав Бородокин, Муза Крепкогорская, Владимир Деянов, Гурген Тонунц, Лариса Виккел
О фильме: Молодой тунеядец Мишка Короедов приезжает в один южный город у моря, где живёт его прежняя подруга, официантка Люба. Однако та вовсе не горит желанием заботиться о нежданно свалившемся на её голову госте, который опять решил поживиться за чужой счёт, поэтому устраивает его… опекуном к одной старушке, божьему одуванчику.
Страна: СССР
Продолжительность: 01:20:57
Перевод: не требуется
Файл
Кодек: MKV
Качество: DVDRip-AVC
Видео: MPEG-4 AVC, 2442 Кбит/с, 698x374@744x374
Звук: AC3, 2 ch, 224 Кбит/с

Общее
Уникальный идентификатор : 230444445588849434369830502720383951202 (0xAD5DFC5F34BB54D8869F061BB4DF2162)
Полное имя : R:МОИ РИПЫОпекун_1970-DVDRip-AVC.mkv
Формат : Matroska
Версия формата : Version 2
Размер файла : 1,51 Гбайт
Продолжительность : 1 ч. 20 м.
Общий поток : 2668 Кбит/сек
Дата кодирования : UTC 2015-03-10 22:35:19
Программа кодирования : mkvmerge v5.8.0 ('No Sleep / Pillow') built on Sep 2 2012 15:37:04
Библиотека кодирования : libebml v1.2.3 + libmatroska v1.3.0
Видео
Идентификатор : 1
Формат : AVC
Формат/Информация : Advanced Video Codec
Профиль формата : High@L4.1
Параметр CABAC формата : Да
Параметр ReFrames формата : 14 кадров
Идентификатор кодека : V_MPEG4/ISO/AVC
Продолжительность : 1 ч. 20 м.
Битрейт : 2442 Кбит/сек
Ширина : 698 пикселей
Высота : 374 пикселя
Соотношение сторон : 1,989
Соотношение сторон в оригинале : 1,991
Режим частоты кадров : Постоянный
Частота кадров : 25,000 кадров/сек
Цветовое пространство : YUV
Субдискретизация насыщенности : 4:2:0
Битовая глубина : 8 бит
Тип развёртки : Прогрессивная
Бит/(Пиксели*Кадры) : 0.374
Размер потока : 1,35 Гбайт (90%)
Библиотека кодирования : x264 core 142 r2431 ac76440
Настройки программы : cabac=1 / ref=14 / deblock=1:-2:-2 / analyse=0x3:0x133 / me=umh / subme=10 / psy=1 / psy_rd=1.05:0.15 / mixed_ref=1 / me_range=32 / chroma_me=1 / trellis=2 / 8x8dct=1 / cqm=0 / deadzone=21,11 / fast_pskip=0 / chroma_qp_offset=-3 / threads=12 / lookahead_threads=2 / sliced_threads=0 / nr=0 / decimate=0 / interlaced=0 / bluray_compat=0 / constrained_intra=0 / bframes=8 / b_pyramid=2 / b_adapt=2 / b_bias=0 / direct=3 / weightb=1 / open_gop=0 / weightp=2 / keyint=250 / keyint_min=25 / scenecut=40 / intra_refresh=0 / rc=2pass / mbtree=0 / bitrate=2442 / ratetol=1.0 / qcomp=0.60 / qpmin=0 / qpmax=39 / qpstep=4 / cplxblur=20.0 / qblur=0.5 / ip_ratio=1.40 / pb_ratio=1.30 / aq=1:1.00
Язык : English
Default : Да
Forced : Нет
Цветовой диапазон : Limited
Основные цвета : BT.601 PAL
Характеристики трансфера : BT.470 System B, BT.470 System G
Коэффициенты матрицы : BT.601
Аудио
Идентификатор : 2
Формат : AC-3
Формат/Информация : Audio Coding 3
Расширение режима : CM (complete main)
Параметр Endianness формата : Big
Идентификатор кодека : A_AC3
Продолжительность : 1 ч. 20 м.
Вид битрейта : Постоянный
Битрейт : 224 Кбит/сек
Каналы : 2 канала
Расположение каналов : Front: L R
Частота : 48,0 КГц
Битовая глубина : 16 бит
Метод сжатия : С потерями
Размер потока : 130 Мбайт (8%)
Язык : Russian
Default : Да
Forced : Нет

Релиз от:
Автор релиза:



   Похожие торренты   Торрент   Размер 
В этой теме нет новых непрочитанных сообщений. Опекун (1970) DVDRip от ExKinoRay

42 | 25

1.36 ГБ

В этой теме нет новых непрочитанных сообщений. Опекун (1970) DVDRip

209 | 22

788.56 МБ

В этой теме нет новых непрочитанных сообщений. Негодяй / Le voyou (1970) DVDRip от ExKinoRay

10 | 7

1.46 ГБ

В этой теме нет новых непрочитанных сообщений. Паранойя / Paranoia (1970) DVDRip от ExKinoRay

0 | 5

1.37 ГБ

В этой теме нет новых непрочитанных сообщений. Меж высоких хлебов (1970) DVDRip-AVC от ExKinoRay

112 | 16

1.7 ГБ

В этой теме нет новых непрочитанных сообщений. В тридевятом царстве... (1970) DVDRip от ExKinoRay

66 | 7

1.37 ГБ

В этой теме нет новых непрочитанных сообщений. Чизам / Chisum (1970) DVDRip от ExKinoRay

10 | 7

1.47 ГБ




Вы не можете начинать темы
Вы не можете отвечать на сообщения
Вы не можете редактировать свои сообщения
Вы не можете удалять свои сообщения
Вы не можете добавлять вложения

Перейти:  
Для Мосгорсуда, Роскомнадзора и рекламодателей: mosgorsud-torrent[собачка]yandex.ru
 Вход
ppkBB3cker v.2 © 2008-2014 @ PPK
[ Time : 0.515s | 13 Queries | GZIP : Off ]
CGP output time : 0.021s | 5 Queries | GZIP : Off

Торрент трекер RUTOR.IN, Не можете зайти на rutor.org? Какой новый адрес рутор? Какое зеркало рутор? Не работает rutor.org и зеркала? Тогда наш торрент специально для вас. Rutor.in неофициальное зеркало rutor. В случае если у Вас заблокирован rutor или вдруг Вы не можете на него зайти, то Вы без труда сможете скачать бесплатно и без рекламы последние новинки кино, игр, сериалов и прочего у нас, на Rutor.in. Не нужно использовать прокси, чтобы зайти на рутор, достаточно воспользоваться нашим ресурсом. Все новые фильмы, игры, сериалы, книги и музыка за 2013 и 2014 годы через торрент бесплатно. Скачивайте фильмы в хорошем качестве, игры для пк, xbox, playstation без регистрации. У нас вы найдете новые Зарубежные сериалы и Русские сериалы 2013, 2014, 2015 годов. Оставайтесь с нами, качайте любимые фильмы, игры, сериалы, книги и музыку.