img image001 image001 image001 image001 image001 image001 image001 image001 image001 image001 image001 image001 image001 image001 image001

Planets Sun Sun Sun
Статистика раздачи
Автор: Nickolas3434 | Размер: 4.5 ГБ | Добавлен: 22 июл 2015
Раздают: 436    Качают: 18
Скачать торрент
Скачать торрент
Описание торрента

СообщениеДобавлено: 22 июл 2015 


Информация о фильме
Название: Приключения Электроника
Год выхода: 1979
Жанр: Детский, приключения, фантастика
Режиссер: Константин Бромберг
В ролях: Владимир Торсуев, Юрий Торсуев, Василий Скромный, Оксана Алексеева, Максим Калинин, Дмитрий Максимов, Евгений Лившиц, Валерия Солуян, Николай Гринько, Елизавета Никищихина, Владимир Басов, Николай Караченцов, Евгений Весник, Майя Булгакова, Николай Боярский, Роза Макагонова, Марина Самойлова, Наталья Васаженко, Юрий Чернов, Лев Перфилов, Геннадий Ялович, Валентин Кулик, Оксана Фандера, Валентина Губская, Галина Осташевская, Валерий Гутман, Анатолий Обухов, Борис Смельцов, Александр Казимиров, Андрей Гончар
О фильме: Советский ученый создает гениального робота. Это мальчик, который способен решать любые математические задачи, он пишет самые лучшие сочинения и отлично поет! А еще он - точная копия школьника Сережи Сыроежкина. Сообразительный мальчуган быстренько перекладывает все свои обязанности на электронного двойника. Тот делает за него домашние задания, ходит в школу и выполняет хозяйственные дела, которые Сыроежкину поручают родители... Этoт дeтcкий мyзыкaльный фильм oб yдивитeльныx пpиключeнияx мaльчикa и eгo двoйникa - элeктpoннoгo poбoтa, жeлaющeгo нeпpeмeннo yзнaть, чтo знaчит «быть чeлoвeкoм», в нaчaлe вocьмидecятыx гoдoв был нecoмнeнным peкopдcмeнoм пo пoпyляpнocти y юныx тeлeзpитeлeй.
Страна: СССР
Продолжительность: 3 х ~ 01:08:08
Перевод: не требуется
Файл
Кодек: MKV
Качество: DVDRip-AVC
Видео: MPEG-4 AVC, ~ 2850 Кбит/с, 712x572@764x572
Звук: AC3, 6 ch, 384 Кбит/с



raw [info]: 712x572p 16:15 @ 25/1 fps (cfr)
x264 [info]: using SAR=16/15
x264 [info]: using cpu capabilities: MMX2 SSE2Fast SSSE3 SSE4.2 AVX
x264 [info]: profile High, level 4.1
x264 [info]: frame I:651 Avg QP:17.37 size: 70744
x264 [info]: frame P:27333 Avg QP:20.69 size: 27383
x264 [info]: frame B:78729 Avg QP:22.77 size: 9223
==============================================================================================================
Общее
Уникальный идентификатор : 171932019754572841948455861069254505607 (0x8158E70BD752D17D924FEA5C31C83487)
Полное имя : I:МОИ РИПЫЭлектроник_1979-DVDRip-AVCЭлектроник-1.mkv
Формат : Matroska
Версия формата : Version 2
Размер файла : 1,61 Гбайт
Продолжительность : 1 ч. 11 м.
Общий поток : 3236 Кбит/сек
Дата кодирования : UTC 2015-05-24 02:06:40
Программа кодирования : mkvmerge v5.8.0 ('No Sleep / Pillow') built on Sep 2 2012 15:37:04
Библиотека кодирования : libebml v1.2.3 + libmatroska v1.3.0
Видео
Идентификатор : 1
Формат : AVC
Формат/Информация : Advanced Video Codec
Профиль формата : High@L4.1
Параметр CABAC формата : Да
Параметр ReFrames формата : 14 кадров
Идентификатор кодека : V_MPEG4/ISO/AVC
Продолжительность : 1 ч. 11 м.
Битрейт : 2850 Кбит/сек
Ширина : 712 пикселей
Высота : 572 пикселя
Соотношение сторон : 4:3
Соотношение сторон в оригинале : 4:3
Режим частоты кадров : Постоянный
Частота кадров : 25,000 кадров/сек
Цветовое пространство : YUV
Субдискретизация насыщенности : 4:2:0
Битовая глубина : 8 бит
Тип развёртки : Прогрессивная
Бит/(Пиксели*Кадры) : 0.280
Размер потока : 1,39 Гбайт (86%)
Библиотека кодирования : x264 core 146 r2538 121396c
Настройки программы : cabac=1 / ref=14 / deblock=1:-2:-2 / analyse=0x3:0x133 / me=umh / subme=10 / psy=1 / psy_rd=1.05:0.13 / mixed_ref=1 / me_range=32 / chroma_me=1 / trellis=2 / 8x8dct=1 / cqm=0 / deadzone=21,11 / fast_pskip=0 / chroma_qp_offset=-3 / threads=12 / lookahead_threads=3 / sliced_threads=0 / nr=0 / decimate=0 / interlaced=0 / bluray_compat=0 / constrained_intra=0 / bframes=10 / b_pyramid=2 / b_adapt=2 / b_bias=0 / direct=3 / weightb=1 / open_gop=0 / weightp=2 / keyint=250 / keyint_min=25 / scenecut=40 / intra_refresh=0 / rc=2pass / mbtree=0 / bitrate=2850 / ratetol=1.0 / qcomp=0.65 / qpmin=0 / qpmax=39 / qpstep=4 / cplxblur=20.0 / qblur=0.5 / ip_ratio=1.40 / pb_ratio=1.30 / aq=2:0.90
Язык : English
Default : Да
Forced : Нет
Основные цвета : BT.601 PAL
Характеристики трансфера : BT.470 System B, BT.470 System G
Коэффициенты матрицы : BT.601
Аудио
Идентификатор : 2
Формат : AC-3
Формат/Информация : Audio Coding 3
Расширение режима : CM (complete main)
Параметр Endianness формата : Big
Идентификатор кодека : A_AC3
Продолжительность : 1 ч. 11 м.
Вид битрейта : Постоянный
Битрейт : 384 Кбит/сек
Каналы : 6 каналов
Расположение каналов : Front: L C R, Side: L R, LFE
Частота : 48,0 КГц
Битовая глубина : 16 бит
Метод сжатия : С потерями
Размер потока : 195 Мбайт (12%)
Язык : Russian
Default : Да
Forced : Нет

Релиз от:
Автор релиза:



   Похожие торренты   Торрент   Размер 
В этой теме нет новых непрочитанных сообщений. Приключения Электроника (1979) DVDRip

405 | 25

3.15 ГБ

В этой теме нет новых непрочитанных сообщений. Приключения Электроника (1979) DVDRip-AVC

161 | 18

6.8 ГБ

В этой теме нет новых непрочитанных сообщений. Приключения Электроника (1979) DVDRip

387 | 27

1.46 ГБ

В этой теме нет новых непрочитанных сообщений. Приключения Электроника (1979) DVDRip от R.G.RealMT

538 | 38

2.63 ГБ

В этой теме нет новых непрочитанных сообщений. Приключения Электроника (1979) DVDRip от Alekxandr48

6 | 2

2.05 ГБ

В этой теме нет новых непрочитанных сообщений. Приключения Электроника (1979) DVDRip от MediaClub

79 | 4

2.91 ГБ

В этой теме нет новых непрочитанных сообщений. Приключения Электроника (1979) DVDRip от MediaClub

293 | 12

1.46 ГБ




Вы не можете начинать темы
Вы не можете отвечать на сообщения
Вы не можете редактировать свои сообщения
Вы не можете удалять свои сообщения
Вы не можете добавлять вложения

Перейти:  
Для Мосгорсуда, Роскомнадзора и рекламодателей: mosgorsud-torrent[собачка]yandex.ru
 Вход
ppkBB3cker v.2 © 2008-2014 @ PPK
[ Time : 0.068s | 14 Queries | GZIP : Off ]

Торрент трекер RUTOR.IN, Не можете зайти на rutor.org? Какой новый адрес рутор? Какое зеркало рутор? Не работает rutor.org и зеркала? Тогда наш торрент специально для вас. Rutor.in неофициальное зеркало rutor. В случае если у Вас заблокирован rutor или вдруг Вы не можете на него зайти, то Вы без труда сможете скачать бесплатно и без рекламы последние новинки кино, игр, сериалов и прочего у нас, на Rutor.in. Не нужно использовать прокси, чтобы зайти на рутор, достаточно воспользоваться нашим ресурсом. Все новые фильмы, игры, сериалы, книги и музыка за 2013 и 2014 годы через торрент бесплатно. Скачивайте фильмы в хорошем качестве, игры для пк, xbox, playstation без регистрации. У нас вы найдете новые Зарубежные сериалы и Русские сериалы 2013, 2014, 2015 годов. Оставайтесь с нами, качайте любимые фильмы, игры, сериалы, книги и музыку.