img image001 image001 image001 image001 image001 image001 image001 image001 image001 image001 image001 image001 image001 image001 image001

Planets Sun Sun Sun
Статистика раздачи
Автор: Nickolas3434 | Размер: 3.05 ГБ | Добавлен: 22 июл 2015
Раздают: 491    Качают: 38
Скачать торрент
Скачать торрент
Описание торрента

СообщениеДобавлено: 22 июл 2015 


Информация о фильме
Название: По семейным обстоятельствам
Год выхода:
Жанр: Лирическая комедия
Режиссер: Алексей Коренев
В ролях: Галина Польских, Ролан Быков, Евгений Евстигнеев, Марина Дюжева, Евгений Стеблов, Анатолий Папанов, Евгения Ханаева, Бухути Закариадзе, Людмила Зайцева, Нина Дорошина, Юрий Кузьменков, Лев Дуров, Николай Парфенов, Владимир Басов
О фильме: Режиссер поставил замечательную мелодраму с элементами комедии, рассказывающую о жизни, любви, семье, семейных проблемах, взаимоотношениях между родителями и детьми, тещами, свекровями. Галина Польских в роли привлекательной, молодой еще женщины, чья дочь вышла замуж за героя Стеблова. Дочь и ее муж еще так молоды, и она не может принять их легкого отношения к жизни, травит зятя, пока сама не становится невесткой, выйдя замуж за художника, которого сыграл Евгений Евстигнеев, скромного, тихого человека, живущего со своей очень требовательной мамой. Только тогда она резко меняется и дома, и на работе. Добрая, милая картина, горячо любимая нашим зрителем. Многие эпизоды - например, с логопедом Быковым, не произносящим половину букв, вошли в пословицы и дежурные шутки, благодаря прекрасным диалогам сценариста Валентина Азерникова.
Страна: СССР
Продолжительность: 2 х ~ 01:04:25
Перевод: не требуется
Файл
Кодек: MKV
Качество: DVDRip-AVC
Видео: MPEG-4 AVC,~ 2900 Кбит/с, 720x576@768x576
Звук: AC3, 6 ch, 448 Кбит/с





raw [info]: 720x576p 16:15 @ 25/1 fps (cfr)
x264 [info]: using SAR=16/15
x264 [info]: using cpu capabilities: MMX2 SSE2Fast SSSE3 SSE4.2 AVX
x264 [info]: profile High, level 4.1
x264 [info]: frame I:467 Avg QP:18.65 size: 58082
x264 [info]: frame P:19652 Avg QP:20.16 size: 32590
x264 [info]: frame B:78605 Avg QP:22.33 size: 9787
======================================================================================================
Общее
Уникальный идентификатор : 213396491264278772115802829303835257779 (0xA08AAB5450CCEF1098259953F0CBEBB3)
Полное имя : D:По семейным обстоятельствам_1979-DVDRip-AVCОбстоятельства-1.mkv
Формат : Matroska
Версия формата : Version 2
Размер файла : 1,51 Гбайт
Продолжительность : 1 ч. 3 м.
Общий поток : 3428 Кбит/сек
Дата кодирования : UTC 2015-07-19 16:32:01
Программа кодирования : mkvmerge v5.8.0 ('No Sleep / Pillow') built on Sep 2 2012 15:37:04
Библиотека кодирования : libebml v1.2.3 + libmatroska v1.3.0
Видео
Идентификатор : 1
Формат : AVC
Формат/Информация : Advanced Video Codec
Профиль формата : High@L4.1
Параметр CABAC формата : Да
Параметр ReFrames формата : 15 кадров
Идентификатор кодека : V_MPEG4/ISO/AVC
Продолжительность : 1 ч. 3 м.
Битрейт : 2912 Кбит/сек
Ширина : 720 пикселей
Высота : 576 пикселей
Соотношение сторон : 4:3
Режим частоты кадров : Постоянный
Частота кадров : 25,000 кадров/сек
Стандарт вещания : PAL
Цветовое пространство : YUV
Субдискретизация насыщенности : 4:2:0
Битовая глубина : 8 бит
Тип развёртки : Прогрессивная
Бит/(Пиксели*Кадры) : 0.281
Размер потока : 1,28 Гбайт (85%)
Библиотека кодирования : x264 core 146 r2538 121396c
Настройки программы : cabac=1 / ref=15 / deblock=1:-2:-2 / analyse=0x3:0x133 / me=umh / subme=10 / psy=1 / psy_rd=1.05:0.00 / mixed_ref=1 / me_range=32 / chroma_me=1 / trellis=2 / 8x8dct=1 / cqm=0 / deadzone=21,11 / fast_pskip=1 / chroma_qp_offset=-2 / threads=12 / lookahead_threads=2 / sliced_threads=0 / nr=0 / decimate=1 / interlaced=0 / bluray_compat=0 / constrained_intra=0 / bframes=8 / b_pyramid=2 / b_adapt=2 / b_bias=0 / direct=1 / weightb=1 / open_gop=0 / weightp=2 / keyint=250 / keyint_min=25 / scenecut=40 / intra_refresh=0 / rc_lookahead=40 / rc=crf / mbtree=0 / crf=18.0 / qcomp=0.65 / qpmin=0 / qpmax=69 / qpstep=4 / vbv_maxrate=50000 / vbv_bufsize=62500 / crf_max=0.0 / nal_hrd=none / filler=0 / ip_ratio=1.40 / pb_ratio=1.30 / aq=1:1.00
Язык : English
Default : Да
Forced : Нет
Цветовой диапазон : Limited
Основные цвета : BT.601 PAL
Характеристики трансфера : BT.470 System B, BT.470 System G
Коэффициенты матрицы : BT.601
Аудио
Идентификатор : 2
Формат : AC-3
Формат/Информация : Audio Coding 3
Расширение режима : CM (complete main)
Параметр Endianness формата : Big
Идентификатор кодека : A_AC3
Продолжительность : 1 ч. 3 м.
Вид битрейта : Постоянный
Битрейт : 448 Кбит/сек
Каналы : 6 каналов
Расположение каналов : Front: L C R, Side: L R, LFE
Частота : 48,0 КГц
Битовая глубина : 16 бит
Метод сжатия : С потерями
Задержка видео : 380 мс.
Размер потока : 202 Мбайт (13%)
Язык : Russian
Default : Да
Forced

Релиз от:
Автор релиза:



   Похожие торренты   Торрент   Размер 
В этой теме нет новых непрочитанных сообщений. По семейным обстоятельствам (1977) DVDRip

1024 | 39

1.37 ГБ

В этой теме нет новых непрочитанных сообщений. По семейным обстоятельствам (1977) DVDRip от PlanetaUA

121 | 13

2.74 ГБ

В этой теме нет новых непрочитанных сообщений. По семейным обстоятельствам (1977) DVD9

34 | 6

6.09 ГБ

В этой теме нет новых непрочитанных сообщений. По семейным обстоятельствам (1978) DVDRip

321 | 13

2.17 ГБ

В этой теме нет новых непрочитанных сообщений. Между нами, девочками / По семейным обстоятельствам [01-03 из 20] (2013) HDTV 1080i от MediaClub

45 | 36

26.91 ГБ

В этой теме нет новых непрочитанных сообщений. Между нами, девочками / По семейным обстоятельствам [01-03 из 20] (2013) HDTV 1080i от MediaClub

6 | 6

15.99 ГБ

В этой теме нет новых непрочитанных сообщений. Между нами, девочками / По семейным обстоятельствам [01-03 из 20] (2013) HDTV 1080i от MediaClub

5 | 12

21.45 ГБ




Вы не можете начинать темы
Вы не можете отвечать на сообщения
Вы не можете редактировать свои сообщения
Вы не можете удалять свои сообщения
Вы не можете добавлять вложения

Перейти:  
Для Мосгорсуда, Роскомнадзора и рекламодателей: mosgorsud-torrent[собачка]yandex.ru
 Вход
ppkBB3cker v.2 © 2008-2014 @ PPK
[ Time : 1.835s | 14 Queries | GZIP : Off ]

Торрент трекер RUTOR.IN, Не можете зайти на rutor.org? Какой новый адрес рутор? Какое зеркало рутор? Не работает rutor.org и зеркала? Тогда наш торрент специально для вас. Rutor.in неофициальное зеркало rutor. В случае если у Вас заблокирован rutor или вдруг Вы не можете на него зайти, то Вы без труда сможете скачать бесплатно и без рекламы последние новинки кино, игр, сериалов и прочего у нас, на Rutor.in. Не нужно использовать прокси, чтобы зайти на рутор, достаточно воспользоваться нашим ресурсом. Все новые фильмы, игры, сериалы, книги и музыка за 2013 и 2014 годы через торрент бесплатно. Скачивайте фильмы в хорошем качестве, игры для пк, xbox, playstation без регистрации. У нас вы найдете новые Зарубежные сериалы и Русские сериалы 2013, 2014, 2015 годов. Оставайтесь с нами, качайте любимые фильмы, игры, сериалы, книги и музыку.