img image001 image001 image001 image001 image001 image001 image001 image001 image001 image001 image001 image001 image001 image001 image001

Planets Sun Sun Sun
Статистика раздачи
Автор: Nickolas3434 | Размер: 3.41 ГБ | Добавлен: 22 июл 2015
Раздают: 151    Качают: 20
Скачать торрент
Скачать торрент
Описание торрента

СообщениеДобавлено: 22 июл 2015 


Информация о фильме
Название: Пираты ХХ века
Год выхода: 1979
Жанр: Боевик
Режиссер: Борис Дуров
В ролях: Николай Ерёменко мл., Пётр Вельяминов, Талгат Нигматулин, Рейно Арен, Дилором Камбарова, Наталья Хорохорина, Джигангир Шахмурадов, Юрий Кутырев, Тадеуш Касьянов, Майя Эглите, Виктор Жиганов, Георгий Мартиросян, Леонид Трутнев, Владимир Епископосян, Лола Бадалова, Нартай Бегалин, Геннадий Четвериков, Яхье Файзуллаев, Олег Федулов, Виктор Гордеев, Игорь Кашинцев, Игорь Класс, Юрий Комаров, Сергей Кучков, Павел Ремезов, Владимир Жариков, Владимир Никитин, Таттыбюбю Турсунбаева, Владимир Карпичев
О фильме: В основе этого приключенческого фильма — реальная история. Советский сухогрузный корабль перевозил большой груз опиума для фармакологической промышленности. Современные пираты, охотившиеся за ценным грузом, коварством завладели кораблем и экипажем. Чтобы не осталось свидетелей этого разбойного нападения, пираты попытались уничтожить всю команду корабля. В океанских просторах разыгралась напряженная борьба между горсткой советских моряков и современными разбойниками, не знающими пощады.
Страна: СССР, Киностудия им. М. Горького
Продолжительность: 01:19:53
Перевод: не требуется
Файл
Кодек: MKV
Качество: HDTVRip-AVC
Видео: MPEG-4 AVC, 5500 Кбит/с, 1152x518
Звук: AC3, 6 ch, 448 Кбит/с
Субтитры: Русские



raw [info]: 1152x518p 1:1 @ 25/1 fps (cfr)
x264 [info]: using SAR=1/1
x264 [info]: using cpu capabilities: MMX2 SSE2Fast SSSE3 SSE4.2 AVX
x264 [info]: profile High, level 4.1
x264 [info]: frame I:40 Avg QP:18.68 size:100862
x264 [info]: frame P:604 Avg QP:20.75 size: 52917
x264 [info]: frame B:1891 Avg QP:22.49 size: 17755
=====================================================================================================
Общее
Уникальный идентификатор : 175941158175561925634149276481894977652 (0x845D08D4DD36725B959EA7B33B739074)
Полное имя : D:Пираты XX века_1979-HDTVRip-AVC.mkv
Формат : Matroska
Версия формата : Version 2
Размер файла : 3,41 Гбайт
Продолжительность : 1 ч. 19 м.
Общий поток : 6102 Кбит/сек
Дата кодирования : UTC 2015-07-20 09:31:26
Программа кодирования : mkvmerge v5.8.0 ('No Sleep / Pillow') built on Sep 2 2012 15:37:04
Библиотека кодирования : libebml v1.2.3 + libmatroska v1.3.0
Видео
Идентификатор : 1
Формат : AVC
Формат/Информация : Advanced Video Codec
Профиль формата : High@L4.1
Параметр CABAC формата : Да
Параметр ReFrames формата : 13 кадров
Идентификатор кодека : V_MPEG4/ISO/AVC
Продолжительность : 1 ч. 19 м.
Битрейт : 5533 Кбит/сек
Ширина : 1152 пикселя
Высота : 518 пикселей
Соотношение сторон : 2,224
Режим частоты кадров : Постоянный
Частота кадров : 25,000 кадров/сек
Цветовое пространство : YUV
Субдискретизация насыщенности : 4:2:0
Битовая глубина : 8 бит
Тип развёртки : Прогрессивная
Бит/(Пиксели*Кадры) : 0.371
Размер потока : 3,09 Гбайт (91%)
Библиотека кодирования : x264 core 146 r2538 121396c
Настройки программы : cabac=1 / ref=13 / deblock=1:-2:-2 / analyse=0x3:0x113 / me=umh / subme=10 / psy=1 / psy_rd=1.05:0.10 / mixed_ref=1 / me_range=32 / chroma_me=1 / trellis=2 / 8x8dct=1 / cqm=0 / deadzone=21,11 / fast_pskip=1 / chroma_qp_offset=-3 / threads=12 / lookahead_threads=2 / sliced_threads=0 / nr=0 / decimate=1 / interlaced=0 / bluray_compat=0 / constrained_intra=0 / bframes=8 / b_pyramid=2 / b_adapt=2 / b_bias=0 / direct=1 / weightb=1 / open_gop=0 / weightp=2 / keyint=250 / keyint_min=25 / scenecut=40 / intra_refresh=0 / rc_lookahead=40 / rc=crf / mbtree=0 / crf=18.1 / qcomp=0.65 / qpmin=0 / qpmax=69 / qpstep=4 / vbv_maxrate=50000 / vbv_bufsize=62500 / crf_max=0.0 / nal_hrd=none / filler=0 / ip_ratio=1.40 / pb_ratio=1.30 / aq=2:0.90
Язык : English
Default : Да
Forced : Нет
Цветовой диапазон : Limited
Основные цвета : BT.709
Характеристики трансфера : BT.709
Коэффициенты матрицы : BT.709
Аудио
Идентификатор : 2
Формат : AC-3
Формат/Информация : Audio Coding 3
Расширение режима : CM (complete main)
Параметр Endianness формата : Big
Идентификатор кодека : A_AC3
Продолжительность : 1 ч. 19 м.
Вид битрейта : Постоянный
Битрейт : 448 Кбит/сек
Каналы : 6 каналов
Расположение каналов : Front: L C R, Side: L R, LFE
Частота : 48,0 КГц
Битовая глубина : 16 бит
Метод сжатия : С потерями
Размер потока : 256 Мбайт (7%)
Язык : Russian
Default : Да
Forced : Нет
Текст
Идентификатор : 3
Формат : UTF-8
Идентификатор кодека : S_TEXT/UTF8
Идентификатор кодека/Информация : UTF-8 Plain Text
Язык : Russian
Default : Да
Forced : Нет
Меню
00:00:00.000 : en:Chapter 01
00:06:17.120 : en:Chapter 02
00:13:59.920 : en:Chapter 03
00:16:00.320 : en:Chapter 04
00:23:01.680 : en:Chapter 05
00:29:16.400 : en:Chapter 06
00:33:32.720 : en:Chapter 07
00:41:50.080 : en:Chapter 08
00:46:00.400 : en:Chapter 09
00:51:58.080 : en:Chapter 10
00:59:47.680 : en:Chapter 11
01:04:27.840 : en:Chapter 12
01:12:05.200 : en:Chapter 13
01:17:46.480 : en:Chapter 14

Сравнение с исходником: http://screenshotcomparison.com/comparison/135744/picture:0, http://screenshotcomparison.com/compari ... /picture:0
Релиз от:
Автор релиза:



   Похожие торренты   Торрент   Размер 
В этой теме нет новых непрочитанных сообщений. Пираты ХХ века (1979) DVDRip-AVC от ExKinoRay

21 | 6

2.37 ГБ

В этой теме нет новых непрочитанных сообщений. Пираты ХХ века (1979) HDTVRip

189 | 25

1.37 ГБ

В этой теме нет новых непрочитанных сообщений. Пираты ХХ века (1979) HDTVRip от GeneralFilm

68 | 3

1.46 ГБ

В этой теме нет новых непрочитанных сообщений. Пираты ХХ века (1979) HDTVRip от GeneralFilm

31 | 4

744.92 МБ

В этой теме нет новых непрочитанных сообщений. Пираты ХХ века (1979) HDTVRip 720p

595 | 25

3.06 ГБ

В этой теме нет новых непрочитанных сообщений. Пираты ХХ века (1979) DVDRip

10 | 82

1.37 ГБ

В этой теме нет новых непрочитанных сообщений. Пираты ХХ века (1979) DVD9

21 | 6

7.17 ГБ




Вы не можете начинать темы
Вы не можете отвечать на сообщения
Вы не можете редактировать свои сообщения
Вы не можете удалять свои сообщения
Вы не можете добавлять вложения

Перейти:  
Для Мосгорсуда, Роскомнадзора и рекламодателей: mosgorsud-torrent[собачка]yandex.ru
 Вход
ppkBB3cker v.2 © 2008-2014 @ PPK
[ Time : 0.056s | 14 Queries | GZIP : Off ]

Торрент трекер RUTOR.IN, Не можете зайти на rutor.org? Какой новый адрес рутор? Какое зеркало рутор? Не работает rutor.org и зеркала? Тогда наш торрент специально для вас. Rutor.in неофициальное зеркало rutor. В случае если у Вас заблокирован rutor или вдруг Вы не можете на него зайти, то Вы без труда сможете скачать бесплатно и без рекламы последние новинки кино, игр, сериалов и прочего у нас, на Rutor.in. Не нужно использовать прокси, чтобы зайти на рутор, достаточно воспользоваться нашим ресурсом. Все новые фильмы, игры, сериалы, книги и музыка за 2013 и 2014 годы через торрент бесплатно. Скачивайте фильмы в хорошем качестве, игры для пк, xbox, playstation без регистрации. У нас вы найдете новые Зарубежные сериалы и Русские сериалы 2013, 2014, 2015 годов. Оставайтесь с нами, качайте любимые фильмы, игры, сериалы, книги и музыку.