img image001 image001 image001 image001 image001 image001 image001 image001 image001 image001 image001 image001 image001 image001 image001

Planets Sun Sun Sun
Статистика раздачи
Автор: Nickolas3434 | Размер: 2.15 ГБ | Добавлен: 22 июл 2015
Раздают: 93    Качают: 10
Скачать торрент
Скачать торрент
Описание торрента

СообщениеДобавлено: 22 июл 2015 


Информация о фильме
Название: Иду на грозу
Год выхода: 1965
Жанр: Социальная драма
Режиссер: Сергей Микаэлян
В ролях: Александр Белявский, Василий Лановой, Ростислав Плятт, Михаил Астангов, Жанна Прохоренко, Виктория Лепко, Анатолий Папанов, Евгений Лебедев, Лев Прыгунов, Леонид Дьячков, Иосиф Конопацкий, Федор Корчагин, Сергей Плотников
О фильме: По одноименному роману Даниила Гранина.
Это фильм о жизни молодых физиков, о любви, дружбе и предательстве... Два подающих надежду молодых физика - Сергей Крылов и Олег Тулин - со студенческой скамьи серьезно изучают такое явление природы, как гроза. Друзья мечтают научиться управлять погодой. Но постепенно их пути в науке расходятся. Олег готов поступиться принципами ради успеха, а Сергей считает, что истина дороже...
Страна: СССР
Продолжительность: 2 x ~ 01:10:10
Перевод: не требуется
Файл
Кодек: MKV
Качество: SATRip-AVC
Видео: MPEG-4 AVC, 2000 Кбит/с, 694x356@740x356, 694x338@740x338
Звук: AC3, 2 ch, 192 Кбит/с

Общее
Уникальный идентификатор : 237350920180386279424698965769001604024 (0xB2901FDBFA04B355BAAD1A4EA37F93B8)
Полное имя : R:МОИ РИПЫИду на грозу_1965-SATRip-AVCИду на грозу-1.mkv
Формат : Matroska
Версия формата : Version 2
Размер файла : 1,12 Гбайт
Продолжительность : 1 ч. 13 м.
Общий поток : 2194 Кбит/сек
Дата кодирования : UTC 2015-04-21 07:01:22
Программа кодирования : mkvmerge v5.8.0 ('No Sleep / Pillow') built on Sep 2 2012 15:37:04
Библиотека кодирования : libebml v1.2.3 + libmatroska v1.3.0
Видео
Идентификатор : 1
Формат : AVC
Формат/Информация : Advanced Video Codec
Профиль формата : High@L4.1
Параметр CABAC формата : Да
Параметр ReFrames формата : 14 кадров
Идентификатор кодека : V_MPEG4/ISO/AVC
Продолжительность : 1 ч. 13 м.
Битрейт : 2000 Кбит/сек
Ширина : 694 пикселя
Высота : 356 пикселей
Соотношение сторон : 2,079
Режим частоты кадров : Постоянный
Частота кадров : 25,000 кадров/сек
Цветовое пространство : YUV
Субдискретизация насыщенности : 4:2:0
Битовая глубина : 8 бит
Тип развёртки : Прогрессивная
Бит/(Пиксели*Кадры) : 0.324
Размер потока : 1,00 Гбайт (89%)
Библиотека кодирования : x264 core 142 r2431 ac76440
Настройки программы : cabac=1 / ref=14 / deblock=1:-2:-2 / analyse=0x3:0x133 / me=umh / subme=10 / psy=1 / psy_rd=1.05:0.13 / mixed_ref=1 / me_range=32 / chroma_me=1 / trellis=2 / 8x8dct=1 / cqm=0 / deadzone=21,11 / fast_pskip=0 / chroma_qp_offset=-3 / threads=12 / lookahead_threads=2 / sliced_threads=0 / nr=0 / decimate=0 / interlaced=0 / bluray_compat=0 / constrained_intra=0 / bframes=7 / b_pyramid=2 / b_adapt=2 / b_bias=0 / direct=3 / weightb=1 / open_gop=0 / weightp=2 / keyint=250 / keyint_min=25 / scenecut=40 / intra_refresh=0 / rc=2pass / mbtree=0 / bitrate=2000 / ratetol=1.0 / qcomp=0.60 / qpmin=0 / qpmax=39 / qpstep=4 / cplxblur=20.0 / qblur=0.5 / ip_ratio=1.40 / pb_ratio=1.30 / aq=1:1.00
Язык : English
Default : Да
Forced : Нет
Цветовой диапазон : Limited
Основные цвета : BT.601 PAL
Характеристики трансфера : BT.470 System B, BT.470 System G
Коэффициенты матрицы : BT.601
Аудио
Идентификатор : 2
Формат : AC-3
Формат/Информация : Audio Coding 3
Расширение режима : CM (complete main)
Параметр Endianness формата : Big
Идентификатор кодека : A_AC3
Продолжительность : 1 ч. 13 м.
Вид битрейта : Постоянный
Битрейт : 192 Кбит/сек
Каналы : 2 канала
Расположение каналов : Front: L R
Частота : 48,0 КГц
Битовая глубина : 16 бит
Метод сжатия : С потерями
Задержка видео : 100 мс.
Размер потока : 101 Мбайт (9%)
Язык : Russian
Default : Да
Forced : Нет

Спасибо за исходник - Cheef mate
Релиз от:
Автор релиза:



   Похожие торренты   Торрент   Размер 
В этой теме нет новых непрочитанных сообщений. Иду на грозу (1965) SATRip от Amelj

13 | 13

1.45 ГБ

В этой теме нет новых непрочитанных сообщений. Черный бизнес (1965) SATRip-AVC от ExKinoRay

48 | 6

1.34 ГБ

В этой теме нет новых непрочитанных сообщений. Стряпуха (1965) DVDRip от ExKinoRay

650 | 79

1.25 ГБ

В этой теме нет новых непрочитанных сообщений. Верность (1965) DVDRip от ExKinoRay

36 | 8

1.37 ГБ

В этой теме нет новых непрочитанных сообщений. Покушение / Atentát (1965) DVDRip от ExKinoRay

20 | 6

1.37 ГБ

В этой теме нет новых непрочитанных сообщений. Нет неизвестных солдат (1965) DVDRip-AVC от ExKinoRay

88 | 6

1.47 ГБ

В этой теме нет новых непрочитанных сообщений. Казанова 70 / Casanova '70 (1965) BDRip от ExKinoRay | P2

53 | 7

2.04 ГБ




Вы не можете начинать темы
Вы не можете отвечать на сообщения
Вы не можете редактировать свои сообщения
Вы не можете удалять свои сообщения
Вы не можете добавлять вложения

Перейти:  
Для Мосгорсуда, Роскомнадзора и рекламодателей: mosgorsud-torrent[собачка]yandex.ru
 Вход
ppkBB3cker v.2 © 2008-2014 @ PPK
[ Time : 0.057s | 14 Queries | GZIP : On ]

Торрент трекер RUTOR.IN, Не можете зайти на rutor.org? Какой новый адрес рутор? Какое зеркало рутор? Не работает rutor.org и зеркала? Тогда наш торрент специально для вас. Rutor.in неофициальное зеркало rutor. В случае если у Вас заблокирован rutor или вдруг Вы не можете на него зайти, то Вы без труда сможете скачать бесплатно и без рекламы последние новинки кино, игр, сериалов и прочего у нас, на Rutor.in. Не нужно использовать прокси, чтобы зайти на рутор, достаточно воспользоваться нашим ресурсом. Все новые фильмы, игры, сериалы, книги и музыка за 2013 и 2014 годы через торрент бесплатно. Скачивайте фильмы в хорошем качестве, игры для пк, xbox, playstation без регистрации. У нас вы найдете новые Зарубежные сериалы и Русские сериалы 2013, 2014, 2015 годов. Оставайтесь с нами, качайте любимые фильмы, игры, сериалы, книги и музыку.