img image001 image001 image001 image001 image001 image001 image001 image001 image001 image001 image001 image001 image001 image001 image001

Planets Sun Sun Sun
Статистика раздачи
Автор: Nickolas3434 | Размер: 1.75 ГБ | Добавлен: 21 июл 2015
Раздают: 609    Качают: 29
Скачать торрент
Скачать торрент
Описание торрента

СообщениеДобавлено: 21 июл 2015 


Информация о фильме
Название: Приключения Электроника
Год выхода: 1979
Жанр: Детский, приключения, фантастика
Режиссер: Константин Бромберг
В ролях: Владимир Торсуев, Юрий Торсуев, Василий Скромный, Оксана Алексеева, Максим Калинин, Дмитрий Максимов, Евгений Лившиц, Валерия Солуян, Николай Гринько, Елизавета Никищихина, Владимир Басов, Николай Караченцов, Евгений Весник, Майя Булгакова, Николай Боярский, Роза Макагонова, Марина Самойлова, Наталья Васаженко, Юрий Чернов, Лев Перфилов, Геннадий Ялович, Валентин Кулик, Оксана Фандера, Валентина Губская, Галина Осташевская, Валерий Гутман, Анатолий Обухов, Борис Смельцов, Александр Казимиров, Андрей Гончар
О фильме: Советский ученый создает гениального робота. Это мальчик, который способен решать любые математические задачи, он пишет самые лучшие сочинения и отлично поет! А еще он - точная копия школьника Сережи Сыроежкина. Сообразительный мальчуган быстренько перекладывает все свои обязанности на электронного двойника. Тот делает за него домашние задания, ходит в школу и выполняет хозяйственные дела, которые Сыроежкину поручают родители... Этoт дeтcкий мyзыкaльный фильм oб yдивитeльныx пpиключeнияx мaльчикa и eгo двoйникa - элeктpoннoгo poбoтa, жeлaющeгo нeпpeмeннo yзнaть, чтo знaчит «быть чeлoвeкoм», в нaчaлe вocьмидecятыx гoдoв был нecoмнeнным peкopдcмeнoм пo пoпyляpнocти y юныx тeлeзpитeлeй.
Страна: СССР
Продолжительность: 3 х ~ 01:08:00
Перевод: не требуется
Файл
Формат: avi
Качество: DVDRip
Видео: XviD, ~ 1100 Кбит/с, 496x368, 0.256 bit/pixel
Звук: MP3, 2 ch, 128 Кбит/с
Общее
Полное имя : Prikljuchenie.Elektronika.1979.XviD.DVDRip.by.GeneralFilmEL.03.avi
Формат : AVI
Формат/Информация : Audio Video Interleave
Размер файла : 597 Мбайт
Продолжительность : 1 ч. 3 м.
Общий поток : 1307 Кбит/сек
Программа кодирования : VirtualDubMod 1.5.10.3 | www.virtualdub-fr.org || (build 2550/release)
Библиотека кодирования : VirtualDubMod build 2550/release
Видео
Идентификатор : 0
Формат : MPEG-4 Visual
Профиль формата : Advanced Simple@L5
Параметр BVOP формата : 1
Параметр QPel формата : Нет
Параметр GMC формата : Без точки перехода
Параметр матрицы формата : Выборочная
Идентификатор кодека : XVID
Идентификатор кодека/Подсказка : XviD
Продолжительность : 1 ч. 3 м.
Битрейт : 1170 Кбит/сек
Ширина : 496 пикселей
Высота : 368 пикселей
Соотношение сторон : 4:3
Частота кадров : 25,000 кадров/сек
Цветовое пространство : YUV
Субдискретизация насыщенности : 4:2:0
Битовая глубина : 8 бит
Тип развёртки : Прогрессивная
Метод сжатия : С потерями
Бит/(Пиксели*Кадры) : 0.256
Размер потока : 534 Мбайт (89%)
Библиотека кодирования : XviD 73
Аудио
Идентификатор : 1
Формат : MPEG Audio
Версия формата : Version 1
Профиль формата : Layer 3
Идентификатор кодека : 55
Идентификатор кодека/Подсказка : MP3
Продолжительность : 1 ч. 3 м.
Вид битрейта : Постоянный
Битрейт : 128 Кбит/сек
Каналы : 2 канала
Частота : 48,0 КГц
Метод сжатия : С потерями
Размер потока : 58,4 Мбайт (10%)
Выравнивание : Соединение по промежуткам
Продолжительность промежутка : 40 мс. (1,00 видеокадр)
Время предзагрузки промежутка : 504 мс.
Библиотека кодирования : LAME3.99r
Настройки программы : -m s -V 4 -q 0 -lowpass 17 -b 128







Релиз от: &



   Похожие торренты   Торрент   Размер 
В этой теме нет новых непрочитанных сообщений. Приключения Электроника (1979) DVDRip

387 | 27

1.46 ГБ

В этой теме нет новых непрочитанных сообщений. Приключения Электроника (1979) DVDRip

405 | 25

3.15 ГБ

В этой теме нет новых непрочитанных сообщений. Приключения Электроника (1979) DVDRip-AVC

86 | 13

6.8 ГБ

В этой теме нет новых непрочитанных сообщений. Приключения Электроника (1979) DVDRip от R.G.RealMT

538 | 38

2.63 ГБ

В этой теме нет новых непрочитанных сообщений. Приключения Электроника (1979) DVDRip от Alekxandr48

6 | 2

2.05 ГБ

В этой теме нет новых непрочитанных сообщений. Приключения Электроника (1979) DVDRip от MediaClub

303 | 14

1.46 ГБ

В этой теме нет новых непрочитанных сообщений. Приключения Электроника (1979) DVDRip-AVC от ExKinoRay

462 | 16

4.5 ГБ




Вы не можете начинать темы
Вы не можете отвечать на сообщения
Вы не можете редактировать свои сообщения
Вы не можете удалять свои сообщения
Вы не можете добавлять вложения

Перейти:  
Для Мосгорсуда, Роскомнадзора и рекламодателей: mosgorsud-torrent[собачка]yandex.ru
 Вход
ppkBB3cker v.2 © 2008-2014 @ PPK
[ Time : 0.034s | 15 Queries | GZIP : Off ]

Торрент трекер RUTOR.IN, Не можете зайти на rutor.org? Какой новый адрес рутор? Какое зеркало рутор? Не работает rutor.org и зеркала? Тогда наш торрент специально для вас. Rutor.in неофициальное зеркало rutor. В случае если у Вас заблокирован rutor или вдруг Вы не можете на него зайти, то Вы без труда сможете скачать бесплатно и без рекламы последние новинки кино, игр, сериалов и прочего у нас, на Rutor.in. Не нужно использовать прокси, чтобы зайти на рутор, достаточно воспользоваться нашим ресурсом. Все новые фильмы, игры, сериалы, книги и музыка за 2013 и 2014 годы через торрент бесплатно. Скачивайте фильмы в хорошем качестве, игры для пк, xbox, playstation без регистрации. У нас вы найдете новые Зарубежные сериалы и Русские сериалы 2013, 2014, 2015 годов. Оставайтесь с нами, качайте любимые фильмы, игры, сериалы, книги и музыку.
cron