img image001 image001 image001 image001 image001 image001 image001 image001 image001 image001 image001 image001 image001 image001 image001

Planets Sun Sun Sun
Статистика раздачи
Автор: Nickolas3434 | Размер: 702.36 МБ | Добавлен: 22 июл 2015
Раздают: 108    Качают: 10
Скачать торрент
Скачать торрент
Описание торрента

СообщениеДобавлено: 22 июл 2015 


Оригинальное название: Беглецы
Год выхода: 2014
Жанр: Триллер, приключения
Режиссер: Рустам Мосафир
В ролях: Пётр Фёдоров, Елизавета Боярская, Валерий Гришко, Сергей Цепов, Александр Самойлов, Ерик Жолжаксынов, Кирилл Анисимов, Юрис Лауциньш, Сейдулла Молдаханов, Гульнур Кожахметова
О фильме:
Он — вне закона, по его пятам идут охотники за головами. Она знает тайгу, как свои пять пальцев, и только вместе они могут остаться в живых. Тайга общая: кто сильнее, тот и прав, а охота уже началась…
Страна: Россия, Казахстан
Студия: АРТЛАЙТ, Интерфест, Студия Казахфильм, Реал-Дакота
Продолжительность: 01:27:56
Перевод: Не требуется
Файл
Формат: avi
Качество: HDTVRip
Видео: 656х368 (16:9), 25 fps, XviD, 979 kbps avg, 0.162 bit/pixel
Звук: 48 kHz, MP3, 2 ch, 128 kbps avg
Общее
Полное имя : Beglecy.2014.XviD.HDTVRip.by.GeneralFilm.avi
Формат : AVI
Формат/Информация : Audio Video Interleave
Размер файла : 702 Мбайт
Продолжительность : 1 ч. 27 м.
Общий поток : 1117 Кбит/сек
Программа кодирования : VirtualDubMod 1.5.10.3 | www.virtualdub-fr.org || (build 2550/release)
Библиотека кодирования : VirtualDubMod build 2550/release
Видео
Идентификатор : 0
Формат : MPEG-4 Visual
Профиль формата : Advanced Simple@L5
Параметр BVOP формата : 1
Параметр QPel формата : Нет
Параметр GMC формата : Без точки перехода
Параметр матрицы формата : Выборочная
Идентификатор кодека : XVID
Идентификатор кодека/Подсказка : XviD
Продолжительность : 1 ч. 27 м.
Битрейт : 979 Кбит/сек
Ширина : 656 пикселей
Высота : 368 пикселей
Соотношение сторон : 16:9
Частота кадров : 25,000 кадров/сек
Цветовое пространство : YUV
Субдискретизация насыщенности : 4:2:0
Битовая глубина : 8 бит
Тип развёртки : Прогрессивная
Метод сжатия : С потерями
Бит/(Пиксели*Кадры) : 0.162
Размер потока : 616 Мбайт (88%)
Библиотека кодирования : XviD 73
Аудио
Идентификатор : 1
Формат : MPEG Audio
Версия формата : Version 1
Профиль формата : Layer 3
Идентификатор кодека : 55
Идентификатор кодека/Подсказка : MP3
Продолжительность : 1 ч. 27 м.
Вид битрейта : Постоянный
Битрейт : 128 Кбит/сек
Каналы : 2 канала
Частота : 48,0 КГц
Метод сжатия : С потерями
Размер потока : 80,5 Мбайт (11%)
Выравнивание : Соединение по промежуткам
Продолжительность промежутка : 40 мс. (1,00 видеокадр)
Время предзагрузки промежутка : 504 мс.
Библиотека кодирования : LAME3.99r
Настройки программы : -m s -V 4 -q 0 -lowpass 17 -b 128









Релиз от: &
Исходник:



   Похожие торренты   Торрент   Размер 
В этой теме нет новых непрочитанных сообщений. Беглецы / Скрывающиеся / Hidden Away (2013) HDTVRip от Generalfilm

92 | 14

1.37 ГБ

В этой теме нет новых непрочитанных сообщений. Беглецы (2014) HDTVRip-AVC от Files-х

367 | 37

1.37 ГБ

В этой теме нет новых непрочитанных сообщений. Беглецы (2011) DVDRip от Generalfilm | КПК

0 | 2

392.89 МБ

В этой теме нет новых непрочитанных сообщений. Беглецы из ИГИЛ (2015) SATRip от Generalfilm

361 | 15

603.76 МБ

В этой теме нет новых непрочитанных сообщений. Беглецы / Скрывающиеся / Hidden Away (2013) HDTV 1080i от Generalfilm

175 | 73

5.15 ГБ

В этой теме нет новых непрочитанных сообщений. Беглецы / Fled (1996) HDTVRip от Leon-masl | D, A

132 | 16

1.46 ГБ

В этой теме нет новых непрочитанных сообщений. Беглецы (2014) DVD9

133 | 18

4.97 ГБ




Вы не можете начинать темы
Вы не можете отвечать на сообщения
Вы не можете редактировать свои сообщения
Вы не можете удалять свои сообщения
Вы не можете добавлять вложения

Перейти:  
Для Мосгорсуда, Роскомнадзора и рекламодателей: mosgorsud-torrent[собачка]yandex.ru
 Вход
ppkBB3cker v.2 © 2008-2014 @ PPK
[ Time : 0.023s | 14 Queries | GZIP : Off ]

Торрент трекер RUTOR.IN, Не можете зайти на rutor.org? Какой новый адрес рутор? Какое зеркало рутор? Не работает rutor.org и зеркала? Тогда наш торрент специально для вас. Rutor.in неофициальное зеркало rutor. В случае если у Вас заблокирован rutor или вдруг Вы не можете на него зайти, то Вы без труда сможете скачать бесплатно и без рекламы последние новинки кино, игр, сериалов и прочего у нас, на Rutor.in. Не нужно использовать прокси, чтобы зайти на рутор, достаточно воспользоваться нашим ресурсом. Все новые фильмы, игры, сериалы, книги и музыка за 2013 и 2014 годы через торрент бесплатно. Скачивайте фильмы в хорошем качестве, игры для пк, xbox, playstation без регистрации. У нас вы найдете новые Зарубежные сериалы и Русские сериалы 2013, 2014, 2015 годов. Оставайтесь с нами, качайте любимые фильмы, игры, сериалы, книги и музыку.