img image001 image001 image001 image001 image001 image001 image001 image001 image001 image001 image001 image001 image001 image001 image001

Planets Sun Sun Sun
Статистика раздачи
Автор: Nickolas3434 | Размер: 744.05 МБ | Добавлен: 22 июл 2015
Раздают: 252    Качают: 6
Скачать торрент
Скачать торрент
Описание торрента

СообщениеДобавлено: 22 июл 2015 


Информация о фильме
Название: Притчи 4
Год выхода: 2013
Жанр: Семейный, православно-познавательный
Режиссер: Виталий Любецкий
В ролях: Александр Ткаченок, Михаил Есьман, Алексей Яровенко, Александр Одинец, Светлана Бень, Олег Ткачёв, Геннадий Готовчиц, Александр Тиханович
О фильме:
Помните ли вы героев прежних «Притч» - мудрого духовника и его непутевого послушника ? Жизнь не стоит на месте — в монастыре, где они Богу служат, новые корпуса растут, а монахи и прихожане в трудах да молитвах духом возрастают, друг друга немощи носить научаются

Страна: Беларусь
Студия: Видеостудия Свято-Елисаветинского монастыря
Продолжительность: 01:14:16
Перевод: Не требуется
Файл
Кодек: XviD
Качество: DVDRip
Видео: 624x352 (1.77:1), 25 fps, XviD build 73 ~1262 kbps avg, 0.23 bit/pixel
Звук: 48 kHz, MPEG Layer 3, 2 ch, ~128.00 kbps avg
Субтитры: Отсутствует
Семпл
Общее
Полное имя : D:ТоррентМОИ РИПЫПритчи 4Pritchi 4. dvdrip by shkiper.avi
Формат : AVI
Формат/Информация : Audio Video Interleave
Размер файла : 744 Мбайт
Продолжительность : 1 ч. 14 м.
Общий поток : 1401 Кбит/сек
Программа кодирования : VirtualDubMod 1.5.10.3 | www.virtualdub-fr.org || (build 2550/release)
Библиотека кодирования : VirtualDubMod build 2550/release
Видео
Идентификатор : 0
Формат : MPEG-4 Visual
Профиль формата : Advanced Simple@L5
Параметр BVOP формата : 1
Параметр QPel формата : Нет
Параметр GMC формата : Без точки перехода
Параметр матрицы формата : Выборочная
Идентификатор кодека : XVID
Идентификатор кодека/Подсказка : XviD
Продолжительность : 1 ч. 14 м.
Битрейт : 1263 Кбит/сек
Ширина : 624 пикселя
Высота : 352 пикселя
Соотношение сторон : 16:9
Частота кадров : 25,000 кадров/сек
Цветовое пространство : YUV
Субдискретизация насыщенности : 4:2:0
Битовая глубина : 8 бит
Тип развёртки : Прогрессивная
Метод сжатия : С потерями
Бит/(Пиксели*Кадры) : 0.230
Размер потока : 671 Мбайт (90%)
Библиотека кодирования : XviD 73
Аудио
Идентификатор : 1
Формат : MPEG Audio
Версия формата : Version 1
Профиль формата : Layer 3
Режим : Joint stereo
Расширение режима : MS Stereo
Идентификатор кодека : 55
Идентификатор кодека/Подсказка : MP3
Продолжительность : 1 ч. 14 м.
Вид битрейта : Постоянный
Битрейт : 128 Кбит/сек
Каналы : 2 канала
Частота : 48,0 КГц
Метод сжатия : С потерями
Размер потока : 68,0 Мбайт (9%)
Выравнивание : Соединение по промежуткам
Продолжительность промежутка : 40 мс. (1,00 видеокадр)
Время предзагрузки промежутка : 504 мс.
Библиотека кодирования : LAME3.99r
Настройки программы : -m j -V 4 -q 2 -lowpass 17 -b 128

Релиз от:



   Похожие торренты   Торрент   Размер 
В этой теме нет новых непрочитанных сообщений. Притчи 4 (2013) DVDRip | Лицензия

361 | 24

1.01 ГБ

В этой теме нет новых непрочитанных сообщений. Притчи 4 (2013) DVD5 | Лицензия

41 | 7

4.34 ГБ

В этой теме нет новых непрочитанных сообщений. Восьмерка (2013) DVDRip от Шкипер | Лицензия

412 | 21

744.39 МБ

В этой теме нет новых непрочитанных сообщений. Тайна четырех принцесс (2014) DVDRip от Шкипер | Лицензия

113 | 6

745.5 МБ

В этой теме нет новых непрочитанных сообщений. Притчи 2 (2012) DVDRip

19 | 4

698.61 МБ

В этой теме нет новых непрочитанных сообщений. Притчи (2010) DVDRip-AVC

31 | 5

1.37 ГБ

В этой теме нет новых непрочитанных сообщений. Притчи (2010) DVDRip

10 | 6

756.01 МБ




Вы не можете начинать темы
Вы не можете отвечать на сообщения
Вы не можете редактировать свои сообщения
Вы не можете удалять свои сообщения
Вы не можете добавлять вложения

Перейти:  
Для Мосгорсуда, Роскомнадзора и рекламодателей: mosgorsud-torrent[собачка]yandex.ru
 Вход
ppkBB3cker v.2 © 2008-2014 @ PPK
[ Time : 0.030s | 15 Queries | GZIP : On ]

Торрент трекер RUTOR.IN, Не можете зайти на rutor.org? Какой новый адрес рутор? Какое зеркало рутор? Не работает rutor.org и зеркала? Тогда наш торрент специально для вас. Rutor.in неофициальное зеркало rutor. В случае если у Вас заблокирован rutor или вдруг Вы не можете на него зайти, то Вы без труда сможете скачать бесплатно и без рекламы последние новинки кино, игр, сериалов и прочего у нас, на Rutor.in. Не нужно использовать прокси, чтобы зайти на рутор, достаточно воспользоваться нашим ресурсом. Все новые фильмы, игры, сериалы, книги и музыка за 2013 и 2014 годы через торрент бесплатно. Скачивайте фильмы в хорошем качестве, игры для пк, xbox, playstation без регистрации. У нас вы найдете новые Зарубежные сериалы и Русские сериалы 2013, 2014, 2015 годов. Оставайтесь с нами, качайте любимые фильмы, игры, сериалы, книги и музыку.