img image001 image001 image001 image001 image001 image001 image001 image001 image001 image001 image001 image001 image001 image001 image001

Planets Sun Sun Sun
Статистика раздачи
Автор: Nickolas3434 | Размер: 2.35 ГБ | Добавлен: 24 июл 2015
Раздают: 112    Качают: 6
Скачать торрент
Скачать торрент
Описание торрента

СообщениеДобавлено: 24 июл 2015 


Информация о фильме
Название: Смайлик
Год выхода: 2014
Жанр: Романтическая комедия
Режиссер: Тамара Аленникова
В ролях: Александра Лупашко, Антон Соколов (II), Татьяна Яковенко, Витас Эйзенах, Мария Поезжаева, Мария Бушмелёва, Александр Ратников, Александр Чевычелов, Алексей Суренский, Ольга Хохлова, Валентина Светлова (II)
О фильме:
Вы верите в любовь с первого взгляда в современном мире безумных скоростей и бесконечных СМС? Совершенно разные люди находят друг друга и знакомятся в социальных сетях. У каждого из них – своя устроенная жизнь, свои привычки и свои привязанности. Казалось, не существует никаких причин для судьбоносных перемен… Что может поколебать этот устойчивый и правильный мир? Разве что, случайный смайлик на мониторе… И безумное предложение встретиться… Смайлик – величайшее изобретение нашего времени! «Смайлик» – три новеллы, три истории любви с непредсказуемой развязкой.

Страна: Россия
Студия: Продюсерская кинокомпания «Киномир»
Продолжительность: 01:27:15
Язык: Русский
Файл
Кодек: h.264
Качество: HDTVRip 720p
Видео: 3207 Кбит/с, 1280х674, 25.000 кадр/с
Звук: Русский (AC3, 6 ch, 448 Кбит/с), (AC3, 2 ch, 192 Кбит/с)
Полное имя : Smajlik.2014.x264.HDTVRip.720p.0ptimus.mkv
Формат : Matroska
Версия формата : Version 2
Размер файла : 2,35 Гбайт
Продолжительность : 1 ч. 27 м.
Общий поток : 3848 Кбит/сек
Название фильма : Смайлик [2014] -= HDTVRip (720p) =-
Дата кодирования : UTC 2015-07-22 06:50:41
Программа кодирования : mkvmerge v6.6.0 ('The Edge Of The In Between') built on Dec 1 2013 17:55:00
Библиотека кодирования : libebml v1.3.0 + libmatroska v1.4.1
Видео
Идентификатор : 1
Формат : AVC
Формат/Информация : Advanced Video Codec
Профиль формата : High@L4.1
Параметр CABAC формата : Да
Параметр ReFrames формата : 8 кадров
Идентификатор кодека : V_MPEG4/ISO/AVC
Продолжительность : 1 ч. 27 м.
Битрейт : 3207 Кбит/сек
Ширина : 1280 пикселей
Высота : 674 пикселя
Соотношение сторон : 1,899
Режим частоты кадров : Постоянный
Частота кадров : 25,000 кадров/сек
Цветовое пространство : YUV
Субдискретизация насыщенности : 4:2:0
Битовая глубина : 8 бит
Тип развёртки : Прогрессивная
Бит/(Пиксели*Кадры) : 0.149
Размер потока : 1,91 Гбайт (81%)
Заголовок : Rip by 0ptimus
Библиотека кодирования : x264 core 133 r2334 a3ac64b
Настройки программы : cabac=1 / ref=8 / deblock=1:-3:-3 / analyse=0x3:0x113 / me=umh / subme=10 / psy=1 / psy_rd=1.00:0.20 / mixed_ref=1 / me_range=32 / chroma_me=1 / trellis=2 / 8x8dct=1 / cqm=0 / deadzone=21,11 / fast_pskip=0 / chroma_qp_offset=-3 / threads=3 / lookahead_threads=1 / sliced_threads=0 / nr=0 / decimate=0 / interlaced=0 / bluray_compat=0 / constrained_intra=0 / bframes=11 / b_pyramid=2 / b_adapt=2 / b_bias=0 / direct=3 / weightb=1 / open_gop=0 / weightp=2 / keyint=250 / keyint_min=25 / scenecut=40 / intra_refresh=0 / rc_lookahead=40 / rc=2pass / mbtree=0 / bitrate=3207 / ratetol=1.0 / qcomp=0.60 / qpmin=0 / qpmax=69 / qpstep=4 / cplxblur=20.0 / qblur=0.5 / vbv_maxrate=50000 / vbv_bufsize=50000 / nal_hrd=none / ip_ratio=1.40 / pb_ratio=1.30 / aq=1:1.00
Язык : Russian
Default : Да
Forced : Да
Аудио #1
Идентификатор : 2
Формат : AC-3
Формат/Информация : Audio Coding 3
Расширение режима : CM (complete main)
Параметр Endianness формата : Big
Идентификатор кодека : A_AC3
Продолжительность : 1 ч. 27 м.
Вид битрейта : Постоянный
Битрейт : 448 Кбит/сек
Каналы : 6 каналов
Расположение каналов : Front: L C R, Side: L R, LFE
Частота : 48,0 КГц
Битовая глубина : 16 бит
Метод сжатия : С потерями
Размер потока : 280 Мбайт (12%)
Заголовок : AC3 5.1 @ 448 kbps
Язык : Russian
Default : Да
Forced : Да
Аудио #2
Идентификатор : 3
Формат : AC-3
Формат/Информация : Audio Coding 3
Расширение режима : CM (complete main)
Параметр Endianness формата : Big
Идентификатор кодека : A_AC3
Продолжительность : 1 ч. 27 м.
Вид битрейта : Постоянный
Битрейт : 192 Кбит/сек
Каналы : 2 канала
Расположение каналов : Front: L R
Частота : 48,0 КГц
Битовая глубина : 16 бит
Метод сжатия : С потерями
Размер потока : 120 Мбайт (5%)
Заголовок : AC3 2.0 @ 192 kbps
Язык : Russian
Default : Нет
Forced : Нет
Меню
00:00:00.000 : :Chapter 01
00:05:00.000 : :Chapter 02
00:09:59.999 : :Chapter 03
00:14:59.999 : :Chapter 04
00:20:00.000 : :Chapter 05
00:25:00.000 : :Chapter 06
00:30:00.000 : :Chapter 07
00:35:00.000 : :Chapter 08
00:40:00.000 : :Chapter 09
00:45:00.000 : :Chapter 10
00:50:00.000 : :Chapter 11
00:55:00.000 : :Chapter 12
01:00:00.000 : :Chapter 13
01:05:00.000 : :Chapter 14
01:10:00.000 : :Chapter 15
01:15:00.000 : :Chapter 16
01:20:00.000 : :Chapter 17
01:25:00.000 : :Chapter 18



Релиз от:



   Похожие торренты   Торрент   Размер 
В этой теме нет новых непрочитанных сообщений. Смайлик (2014) HDTVRip-AVC

237 | 8

1.17 ГБ

В этой теме нет новых непрочитанных сообщений. Смайлик (2014) HDTVRip-AVC

100 | 8

1.37 ГБ

В этой теме нет новых непрочитанных сообщений. Смайлик (2014) HDTVRip от Files-х

1371 | 41

1.37 ГБ

В этой теме нет новых непрочитанных сообщений. Смайлик (2014) HDTV 1080i от MediaClub

128 | 14

5.56 ГБ

В этой теме нет новых непрочитанных сообщений. Ночные ястребы / Nighthawks (1981) HDTVRip 720p от 0ptimus | P, A

21 | 3

3.82 ГБ

В этой теме нет новых непрочитанных сообщений. Спросите Синди / Good Advice (2001) HDTVRip 720p от 0ptimus | P

3 | 4

5.44 ГБ

В этой теме нет новых непрочитанных сообщений. Майами Блюз / Miami Blues (1990) HDTVRip (720p) от 0ptimus | D, P2, A

1 | 4

4.19 ГБ




Вы не можете начинать темы
Вы не можете отвечать на сообщения
Вы не можете редактировать свои сообщения
Вы не можете удалять свои сообщения
Вы не можете добавлять вложения

Перейти:  
Для Мосгорсуда, Роскомнадзора и рекламодателей: mosgorsud-torrent[собачка]yandex.ru
 Вход
ppkBB3cker v.2 © 2008-2014 @ PPK
[ Time : 0.050s | 16 Queries | GZIP : Off ]

Торрент трекер RUTOR.IN, Не можете зайти на rutor.org? Какой новый адрес рутор? Какое зеркало рутор? Не работает rutor.org и зеркала? Тогда наш торрент специально для вас. Rutor.in неофициальное зеркало rutor. В случае если у Вас заблокирован rutor или вдруг Вы не можете на него зайти, то Вы без труда сможете скачать бесплатно и без рекламы последние новинки кино, игр, сериалов и прочего у нас, на Rutor.in. Не нужно использовать прокси, чтобы зайти на рутор, достаточно воспользоваться нашим ресурсом. Все новые фильмы, игры, сериалы, книги и музыка за 2013 и 2014 годы через торрент бесплатно. Скачивайте фильмы в хорошем качестве, игры для пк, xbox, playstation без регистрации. У нас вы найдете новые Зарубежные сериалы и Русские сериалы 2013, 2014, 2015 годов. Оставайтесь с нами, качайте любимые фильмы, игры, сериалы, книги и музыку.