img image001 image001 image001 image001 image001 image001 image001 image001 image001 image001 image001 image001 image001 image001 image001

Planets Sun Sun Sun
Статистика раздачи
Автор: Nickolas3434 | Размер: 1.46 ГБ | Добавлен: 24 июл 2015
Раздают: 90    Качают: 10
Скачать торрент
Скачать торрент
Описание торрента

СообщениеДобавлено: 24 июл 2015 


Название: Запасной игрок
Год выпуска: 1954
Жанр: Комедия
Выпущено: СССР
Режиссер: Семен Тимошенко
В ролях: Георгий Вицин, Владимир Кузнецов, Елена Тяпкина, Павел Кадочников, Татьяна Конюхова, Валентина Ушакова, Марк Бернес, Константин Адашевский, Владимир Белокуров, П. Поль, Александр Жуков, Э. Луценко, Антатолий Королькевич, Сергей Филиппов, Николай Рыбников
О фильме: Заводская команда "Синих Стрел" выходит в финал и отправляется в Сухуми на теплоходе для встречи с "Вымпелом", считающимся фаворитом. На теплоходе разыгрывается великолепная комедия ситуаций: подающий надежды запасной игрок Веснушкин влюблен в гимнастку, опасаясь, что та предпочитает зазнавшегося старшего брата, лучшего игрока той же команды. На борту находится также актер кино Светланов, переодетый стариком Дедушкиным для лучшего проникновения в образ будущей роли. Сотрудники института геронтологии принимают старика за профессора из Москвы Бабушкина, думая, что тот таким образом решил поближе узнать своих подчиненных. Старший Веснушкин, выпив винца, обижает "пожилого" человека, а тот вызывает его на боксерский матч, имея в этом виде спорта приличный опыт. Все это сплетено в динамично развивающийся сюжет с остроумными диалогами, а кульминацией служит сам матч, в котором Веснушкин-младший обеспечивает команде победу, заменив травмированного вратаря и взяв одиннадцатиметровый. В доброй, уютной картине много превосходных, запоминающихся песен и танцев. Особо хочу выделить сцену прощания в порту ревнивого мужа (Филиппов) с женой. Сама по себе она бы сделала честь лучшим голливудским комедиям.
Качество: DVDRip исходник (DVD-5)
Видео: XviD, 2224 Кбит/с, 720x544
Аудио: Русский, AC3, 6 ch, 448 Кбит/с
Продолжительность: 01:18:07
General
Complete name : G:Запасной игрок 1954 DVDRip.avi
Format : AVI
Format/Info : Audio Video Interleave
File size : 1.46 GiB
Duration : 1h 18mn
Overall bit rate : 2 682 Kbps
Writing application : VirtualDubModRus 1.5.10.2 (build 2542/release)
Writing library : VirtualDubMod build 2542/release
Video
ID : 0
Format : MPEG-4 Visual
Format profile : Advanced Simple@L5
Format settings, BVOP : 2
Format settings, QPel : No
Format settings, GMC : No warppoints
Format settings, Matrix : Default (H.263)
Codec ID : XVID
Codec ID/Hint : XviD
Duration : 1h 18mn
Bit rate : 2 225 Kbps
Width : 720 pixels
Height : 544 pixels
Display aspect ratio : 4:3
Frame rate : 25.000 fps
Color space : YUV
Chroma subsampling : 4:2:0
Bit depth : 8 bits
Scan type : Progressive
Compression mode : Lossy
Bits/(Pixel*Frame) : 0.227
Stream size : 1.21 GiB (83%)
Writing library : XviD 57
Audio
ID : 1
Format : AC-3
Format/Info : Audio Coding 3
Mode extension : CM (complete main)
Format settings, Endianness : Big
Codec ID : 2000
Duration : 1h 18mn
Bit rate mode : Constant
Bit rate : 448 Kbps
Channel(s) : 6 channels
Channel positions : Front: L C R, Side: L R, LFE
Sampling rate : 48.0 KHz
Bit depth : 16 bits
Compression mode : Lossy
Stream size : 250 MiB (17%)
Alignment : Split accross interleaves
Interleave, duration : 40 ms (1.00 video frame)
Interleave, preload duration : 500 ms




Релиз от:



   Похожие торренты   Торрент   Размер 
В этой теме нет новых непрочитанных сообщений. Запасной игрок (1954) DVDRip-AVC

67 | 15

1.59 ГБ

В этой теме нет новых непрочитанных сообщений. Запасной игрок (1954) DVDRip

103 | 9

1.43 ГБ

В этой теме нет новых непрочитанных сообщений. Запасной игрок (1954) DVDRip-AVC от ExKinoRay

53 | 6

1.91 ГБ

В этой теме нет новых непрочитанных сообщений. Запасной игрок (1954) DVDRip от New-Team

17 | 4

1.09 ГБ

В этой теме нет новых непрочитанных сообщений. Запасной игрок (1954) DVDRip от New-Team

19 | 2

744.2 МБ

В этой теме нет новых непрочитанных сообщений. Запасной игрок (1954) DVDRip-AVC от New-Team

14 | 3

1.09 ГБ

В этой теме нет новых непрочитанных сообщений. Запасной игрок (1954) DVD5

17 | 9

4.27 ГБ




Вы не можете начинать темы
Вы не можете отвечать на сообщения
Вы не можете редактировать свои сообщения
Вы не можете удалять свои сообщения
Вы не можете добавлять вложения

Перейти:  
Для Мосгорсуда, Роскомнадзора и рекламодателей: mosgorsud-torrent[собачка]yandex.ru
 Вход
ppkBB3cker v.2 © 2008-2014 @ PPK
[ Time : 0.035s | 15 Queries | GZIP : Off ]

Торрент трекер RUTOR.IN, Не можете зайти на rutor.org? Какой новый адрес рутор? Какое зеркало рутор? Не работает rutor.org и зеркала? Тогда наш торрент специально для вас. Rutor.in неофициальное зеркало rutor. В случае если у Вас заблокирован rutor или вдруг Вы не можете на него зайти, то Вы без труда сможете скачать бесплатно и без рекламы последние новинки кино, игр, сериалов и прочего у нас, на Rutor.in. Не нужно использовать прокси, чтобы зайти на рутор, достаточно воспользоваться нашим ресурсом. Все новые фильмы, игры, сериалы, книги и музыка за 2013 и 2014 годы через торрент бесплатно. Скачивайте фильмы в хорошем качестве, игры для пк, xbox, playstation без регистрации. У нас вы найдете новые Зарубежные сериалы и Русские сериалы 2013, 2014, 2015 годов. Оставайтесь с нами, качайте любимые фильмы, игры, сериалы, книги и музыку.
cron