img image001 image001 image001 image001 image001 image001 image001 image001 image001 image001 image001 image001 image001 image001 image001

Planets Sun Sun Sun
Статистика раздачи
Автор: Nickolas3434 | Размер: 1.69 ГБ | Добавлен: 24 июл 2015
Раздают: 220    Качают: 10
Скачать торрент
Скачать торрент
Описание торрента

СообщениеДобавлено: 24 июл 2015 


Информация о фильме
Название: Прохиндиада, или бег на месте
Год выхода: 1984
Жанр: Комедия, мелодрама
Режиссер: Виктор Трегубович
В ролях: Александр Калягин, Людмила Гурченко, Татьяна Догилева, Ирина Дымченко, Виктор Зозулин, Игорь Горбачёв, Владимир Сошальский, Юрий Кузнецов, Николай Исполатов, Игорь Нефёдов, Валентин Смирнитский, Валентина Ковель, Николай Сытин, Юрий Демич, Валерий Сергеев
О фильме: Герой ленты — сотрудник солидного научно-исследовательского института Сан Саныч Любомудров — личность необыкновенная. Обаятельный ловкач и тонкий психолог, он в совершенстве владеет искусством общаться с «нужными» людьми. Не существует таких проблем, которые он бы не смог решить для других. Но ни его жене, ни дочери особой радости и пользы это безумное количество связей не приносит. Мало того, очередное небезынтересное знакомство полностью переворачивает жизнь Любомудрова.
Страна: СССР
Продолжительность: 01:23:57
Перевод: не требуется
Файл
Кодек: MKV
Качество: SATRip-AVC
Видео: MPEG-4 AVC, 2500 Кбит/с, 694x570@746x570
Звук: AC3, 2 ch, 384 Кбит/с

Общее
Уникальный идентификатор : 202989335401476690106908351069904562108 (0x98B652EE00157972BF06993C23A9E7BC)
Полное имя : R:МОИ РИПЫПрохиндиада, или Бег на месте_1984-SATRip-AVC.mkv
Формат : Matroska
Версия формата : Version 2
Размер файла : 1,69 Гбайт
Продолжительность : 1 ч. 23 м.
Общий поток : 2886 Кбит/сек
Дата кодирования : UTC 2015-04-12 17:31:22
Программа кодирования : mkvmerge v5.8.0 ('No Sleep / Pillow') built on Sep 2 2012 15:37:04
Библиотека кодирования : libebml v1.2.3 + libmatroska v1.3.0
Видео
Идентификатор : 1
Формат : AVC
Формат/Информация : Advanced Video Codec
Профиль формата : High@L4.1
Параметр CABAC формата : Да
Параметр ReFrames формата : 14 кадров
Идентификатор кодека : V_MPEG4/ISO/AVC
Продолжительность : 1 ч. 23 м.
Битрейт : 2500 Кбит/сек
Ширина : 694 пикселя
Высота : 570 пикселей
Соотношение сторон : 1,298
Соотношение сторон в оригинале : 1,299
Режим частоты кадров : Постоянный
Частота кадров : 25,000 кадров/сек
Цветовое пространство : YUV
Субдискретизация насыщенности : 4:2:0
Битовая глубина : 8 бит
Тип развёртки : Прогрессивная
Бит/(Пиксели*Кадры) : 0.253
Размер потока : 1,43 Гбайт (85%)
Библиотека кодирования : x264 core 130 r2273 b3065e6
Настройки программы : cabac=1 / ref=14 / deblock=1:-2:-2 / analyse=0x3:0x133 / me=umh / subme=10 / psy=1 / psy_rd=1.05:0.15 / mixed_ref=1 / me_range=32 / chroma_me=1 / trellis=2 / 8x8dct=1 / cqm=0 / deadzone=21,11 / fast_pskip=0 / chroma_qp_offset=-3 / threads=12 / lookahead_threads=2 / sliced_threads=0 / nr=0 / decimate=0 / interlaced=0 / bluray_compat=0 / constrained_intra=0 / bframes=7 / b_pyramid=2 / b_adapt=2 / b_bias=0 / direct=3 / weightb=1 / open_gop=0 / weightp=2 / keyint=250 / keyint_min=25 / scenecut=40 / intra_refresh=0 / rc=2pass / mbtree=0 / bitrate=2500 / ratetol=1.0 / qcomp=0.65 / qpmin=0 / qpmax=39 / qpstep=4 / cplxblur=20.0 / qblur=0.5 / ip_ratio=1.40 / pb_ratio=1.30 / aq=1:1.00
Язык : English
Default : Да
Forced : Нет
Цветовой диапазон : Limited
Основные цвета : BT.601 PAL
Характеристики трансфера : BT.470 System B, BT.470 System G
Коэффициенты матрицы : BT.601
Аудио
Идентификатор : 2
Формат : AC-3
Формат/Информация : Audio Coding 3
Расширение режима : CM (complete main)
Параметр Endianness формата : Big
Идентификатор кодека : A_AC3
Продолжительность : 1 ч. 23 м.
Вид битрейта : Постоянный
Битрейт : 384 Кбит/сек
Каналы : 2 канала
Расположение каналов : Front: L R
Частота : 48,0 КГц
Битовая глубина : 16 бит
Метод сжатия : С потерями
Задержка видео : 27 мс.
Размер потока : 231 Мбайт (13%)
Язык : Russian
Default : Да
Forced : Нет

Спасибо за исходник DVB - MIFAL
Релиз от:
Автор релиза:



   Похожие торренты   Торрент   Размер 
В этой теме нет новых непрочитанных сообщений. Прохиндиада, или бег на месте (1984) DVDRip

52 | 6

1.37 ГБ

В этой теме нет новых непрочитанных сообщений. Человек на своем месте (1972) DVDRip-AVC от ExKinoRay

16 | 0

2 ГБ

В этой теме нет новых непрочитанных сообщений. На бойком месте (1955) SATRip от New-Team

2 | 1

1.46 ГБ

В этой теме нет новых непрочитанных сообщений. На бойком месте (1955) SATRip-AVC от New-Team

28 | 10

1.46 ГБ

В этой теме нет новых непрочитанных сообщений. На бойком месте (1955) SATRip от New-Team

10 | 1

745.11 МБ

В этой теме нет новых непрочитанных сообщений. Колье Шарлотты [01-03 из 03] (1984) SATRip-AVC от ExKinoRay

451 | 39

3.03 ГБ

В этой теме нет новых непрочитанных сообщений. Берег его жизни (1984) SATRip-AVC от ExKinoRay

9 | 5

3.51 ГБ




Вы не можете начинать темы
Вы не можете отвечать на сообщения
Вы не можете редактировать свои сообщения
Вы не можете удалять свои сообщения
Вы не можете добавлять вложения

Перейти:  
Для Мосгорсуда, Роскомнадзора и рекламодателей: mosgorsud-torrent[собачка]yandex.ru
 Вход
ppkBB3cker v.2 © 2008-2014 @ PPK
[ Time : 0.048s | 14 Queries | GZIP : Off ]

Торрент трекер RUTOR.IN, Не можете зайти на rutor.org? Какой новый адрес рутор? Какое зеркало рутор? Не работает rutor.org и зеркала? Тогда наш торрент специально для вас. Rutor.in неофициальное зеркало rutor. В случае если у Вас заблокирован rutor или вдруг Вы не можете на него зайти, то Вы без труда сможете скачать бесплатно и без рекламы последние новинки кино, игр, сериалов и прочего у нас, на Rutor.in. Не нужно использовать прокси, чтобы зайти на рутор, достаточно воспользоваться нашим ресурсом. Все новые фильмы, игры, сериалы, книги и музыка за 2013 и 2014 годы через торрент бесплатно. Скачивайте фильмы в хорошем качестве, игры для пк, xbox, playstation без регистрации. У нас вы найдете новые Зарубежные сериалы и Русские сериалы 2013, 2014, 2015 годов. Оставайтесь с нами, качайте любимые фильмы, игры, сериалы, книги и музыку.