img image001 image001 image001 image001 image001 image001 image001 image001 image001 image001 image001 image001 image001 image001 image001

Planets Sun Sun Sun
Статистика раздачи
Автор: Nickolas3434 | Размер: 745.5 МБ | Добавлен: 24 июл 2015
Раздают: 113    Качают: 6
Скачать торрент
Скачать торрент
Описание торрента

СообщениеДобавлено: 24 июл 2015 


Информация о фильме
Название: Тайна четырех принцесс
Год выхода: 2014
Жанр: Комедия, фэнтези
Режиссер: Олег Штром
В ролях: Кристина Орбакайте, Сергей Жигунов, Александр Стриженов, Юрий Гальцев, Юлия Паршута, Дмитрий Бурукин, Андрей Федорцов, Сергей Степанченко, Сергей Дорогов, Вадим Галыгин
О фильме:
В некотором царстве, в некотором государстве жил-был весёлый и добрый портной по имени Ганс. Он был молод и не очень богат, а если точнее практически беден, и жители царства-государства звали его просто портняжка Ганс. По воле судьбы он оказывается во дворце короля, который поручает Гансу раскрыть тайну своих дочерей — молодых принцесс, которые каждую ночь куда-то исчезают. А в это время в другом царстве королева Гурунда решила женить своих принцев-сыновей на дочерях соседних сказочно богатых королей. Но беда в том, что сами сыновья уже выбрали себе невест. Отказ сыновей повиноваться вызвал у Гурунды ярость. Она в сердцах проклинает их и превращает в воронов, оставив им только несколько часов на пребывание в человеческом облике — с полночи до трех утра.

Страна: Россия
Студия: КАРО-Продакшн
Продолжительность: 01:25:55
Перевод: Не требуется | Лицензия |
Файл
Кодек: XviD
Качество: DVDRip
Видео: 640x272 (2.35:1), 25 fps, XviD build 73 ~1075 kbps avg, 0.25 bit/pixel
Звук: 48 kHz, MPEG Layer 3, 2 ch, ~128.00 kbps avg
Субтитры: Отсутствуют
Семпл
Общее
Полное имя : D:Изготовление рипаTajna.4.princess.2014.DVDrip by shkiper.avi
Формат : AVI
Формат/Информация : Audio Video Interleave
Размер файла : 746 Мбайт
Продолжительность : 1 ч. 25 м.
Общий поток : 1213 Кбит/сек
Программа кодирования : VirtualDubMod 1.5.10.3 | www.virtualdub-fr.org || (build 2550/release)
Библиотека кодирования : VirtualDubMod build 2550/release
Видео
Идентификатор : 0
Формат : MPEG-4 Visual
Профиль формата : Advanced Simple@L5
Параметр BVOP формата : 1
Параметр QPel формата : Нет
Параметр GMC формата : Без точки перехода
Параметр матрицы формата : Выборочная
Идентификатор кодека : XVID
Идентификатор кодека/Подсказка : XviD
Продолжительность : 1 ч. 25 м.
Битрейт : 1075 Кбит/сек
Ширина : 640 пикселей
Высота : 272 пикселя
Соотношение сторон : 2,40:1
Частота кадров : 25,000 кадров/сек
Цветовое пространство : YUV
Субдискретизация насыщенности : 4:2:0
Битовая глубина : 8 бит
Тип развёртки : Прогрессивная
Метод сжатия : С потерями
Бит/(Пиксели*Кадры) : 0.247
Размер потока : 661 Мбайт (89%)
Библиотека кодирования : XviD 73
Аудио
Идентификатор : 1
Формат : MPEG Audio
Версия формата : Version 1
Профиль формата : Layer 3
Режим : Joint stereo
Расширение режима : MS Stereo
Идентификатор кодека : 55
Идентификатор кодека/Подсказка : MP3
Продолжительность : 1 ч. 25 м.
Вид битрейта : Постоянный
Битрейт : 128 Кбит/сек
Каналы : 2 канала
Частота : 48,0 КГц
Метод сжатия : С потерями
Размер потока : 78,7 Мбайт (11%)
Выравнивание : Соединение по промежуткам
Продолжительность промежутка : 40 мс. (1,00 видеокадр)
Время предзагрузки промежутка : 504 мс.
Библиотека кодирования : LAME3.99r
Настройки программы : -m j -V 4 -q 2 -lowpass 17 -b 128

Релиз от:



   Похожие торренты   Торрент   Размер 
В этой теме нет новых непрочитанных сообщений. Тайна четырех принцесс (2014) DVDRip | Лицензия

2231 | 117

1.45 ГБ

В этой теме нет новых непрочитанных сообщений. Тайна четырех принцесс (2014) DVDRip от MAGNAT231 | КПК | Лицензия

151 | 7

338.96 МБ

В этой теме нет новых непрочитанных сообщений. Тайна четырех принцесс (2014) DVDRip от MegaPeer | Лицензия

2055 | 33

703.27 МБ

В этой теме нет новых непрочитанных сообщений. Тайна четырех принцесс (2014) DVD5 | Лицензия

215 | 37

4.35 ГБ

В этой теме нет новых непрочитанных сообщений. Любовь на четырех колесах (2015) HDTVRip от Шкипер

1135 | 61

745.95 МБ

В этой теме нет новых непрочитанных сообщений. Притчи 4 (2013) DVDRip | Лицензия от Шкипер

252 | 6

744.05 МБ

В этой теме нет новых непрочитанных сообщений. Восьмерка (2013) DVDRip от Шкипер | Лицензия

412 | 21

744.39 МБ




Вы не можете начинать темы
Вы не можете отвечать на сообщения
Вы не можете редактировать свои сообщения
Вы не можете удалять свои сообщения
Вы не можете добавлять вложения

Перейти:  
Для Мосгорсуда, Роскомнадзора и рекламодателей: mosgorsud-torrent[собачка]yandex.ru
 Вход
ppkBB3cker v.2 © 2008-2014 @ PPK
[ Time : 0.052s | 14 Queries | GZIP : On ]

Торрент трекер RUTOR.IN, Не можете зайти на rutor.org? Какой новый адрес рутор? Какое зеркало рутор? Не работает rutor.org и зеркала? Тогда наш торрент специально для вас. Rutor.in неофициальное зеркало rutor. В случае если у Вас заблокирован rutor или вдруг Вы не можете на него зайти, то Вы без труда сможете скачать бесплатно и без рекламы последние новинки кино, игр, сериалов и прочего у нас, на Rutor.in. Не нужно использовать прокси, чтобы зайти на рутор, достаточно воспользоваться нашим ресурсом. Все новые фильмы, игры, сериалы, книги и музыка за 2013 и 2014 годы через торрент бесплатно. Скачивайте фильмы в хорошем качестве, игры для пк, xbox, playstation без регистрации. У нас вы найдете новые Зарубежные сериалы и Русские сериалы 2013, 2014, 2015 годов. Оставайтесь с нами, качайте любимые фильмы, игры, сериалы, книги и музыку.