img image001 image001 image001 image001 image001 image001 image001 image001 image001 image001 image001 image001 image001 image001 image001

Planets Sun Sun Sun
Статистика раздачи
Автор: Nickolas3434 | Размер: 3.38 ГБ | Добавлен: 26 июл 2015
Раздают: 290    Качают: 17
Скачать торрент
Скачать торрент
Описание торрента

СообщениеДобавлено: 26 июл 2015 


Оригинальное название: Туман
Год выхода: 2010
Жанр: Драма, военный, ВОВ
Режиссер: Иван Шурховецкий, Артём Аксененко
В ролях: Игорь Шмаков, Василий Ракша, Артём Крестников, Григорий Калинин, Илья Глинников, Алексей Марков, Алексей Ильин, Иван Лапин, Дмитрий Сергин, Родион Галюченко, Юрий Пимкин, Борис Зверев, Арчибальд Арчибальдович, Евгений Куршинский, Дмитрий Росляков, Владислав Черников, Анна Шмакова, Александр Науменко, Борис Черкасов, Вячеслав Буцков, Светлана Устинова, Анастасия Безбородова, Светлана Агафошина, Виктория Алейникова, Лилия Ишкина, Ольга Лоскутова, Елена Ципилева
О фильме: Отряд молодых бойцов Российской Армии отрывается от основного строя во время марш-броска, дабы сократить путь, бежит наперерез, но попадает в туман, который переносит его в прошлое, в годы Великой Отечественной войны. Ребята, видевшие войну только в кино, попадают в лапы безжалостных событий того времени. Все на грани: храбрость, страх, любовь, ненависть, жизнь, смерть. И некогда задавать вопросы. Живи, дерись за Родину — она одна на все времена.
Страна: Россия
Продолжительность: 02:31:17
Язык: Русский
Кодек: MPEG-4 AVC
Качество: DVDRip-AVC
Видео: 720х524@1024x524, 2752 Кбит/с, 25,000 fps
Звук: AC3, 2 ch, 448 Кбит/с
Семпл
General
Unique ID : 184151871740609297278215541230431841832 (0x8A8A5C43D4BFC904A9E37302D98F2E28)
Complete name : J:мои рипыТуман.2010.x264.DVDRip.(AVC).mkv
Format : Matroska
Format version : Version 2
File size : 3.38 GiB
Duration : 2h 31mn
Overall bit rate : 3 201 Kbps
Movie name : Туман / 2010 / Rip by PowerRock / ExKinoRay
Encoded date : UTC 2015-07-23 11:56:35
Writing application : mkvmerge v7.8.0 ('River Man') 32bit built on Apr 3 2015 12:11:22
Writing library : libebml v1.3.1 + libmatroska v1.4.2
Attachements : cover.jpg
Video
ID : 1
Format : AVC
Format/Info : Advanced Video Codec
Format profile : High@L4.1
Format settings, CABAC : Yes
Format settings, ReFrames : 8 frames
Codec ID : V_MPEG4/ISO/AVC
Duration : 2h 31mn
Bit rate : 2 752 Kbps
Width : 720 pixels
Height : 524 pixels
Display aspect ratio : 1.954
Frame rate mode : Constant
Frame rate : 25.000 fps
Color space : YUV
Chroma subsampling : 4:2:0
Bit depth : 8 bits
Scan type : Progressive
Bits/(Pixel*Frame) : 0.292
Stream size : 2.84 GiB (84%)
Title : Туман / 2010
Writing library : x264 core 146 r2538 121396c
Encoding settings : cabac=1 / ref=8 / deblock=1:-2:-2 / analyse=0x3:0x113 / me=umh / subme=10 / psy=1 / psy_rd=1.00:0.10 / mixed_ref=1 / me_range=24 / chroma_me=1 / trellis=2 / 8x8dct=1 / cqm=0 / deadzone=21,11 / fast_pskip=0 / chroma_qp_offset=-3 / threads=6 / lookahead_threads=1 / sliced_threads=0 / nr=0 / decimate=1 / interlaced=0 / bluray_compat=0 / constrained_intra=0 / bframes=8 / b_pyramid=2 / b_adapt=2 / b_bias=0 / direct=3 / weightb=1 / open_gop=0 / weightp=2 / keyint=250 / keyint_min=23 / scenecut=40 / intra_refresh=0 / rc_lookahead=50 / rc=2pass / mbtree=1 / bitrate=2752 / ratetol=1.0 / qcomp=0.60 / qpmin=10 / qpmax=51 / qpstep=4 / cplxblur=20.0 / qblur=0.5 / vbv_maxrate=14000 / vbv_bufsize=14000 / nal_hrd=none / filler=0 / ip_ratio=1.40 / aq=1:1.00
Default : Yes
Forced : No
Audio
ID : 2
Format : AC-3
Format/Info : Audio Coding 3
Mode extension : CM (complete main)
Format settings, Endianness : Big
Codec ID : A_AC3
Duration : 2h 31mn
Bit rate mode : Constant
Bit rate : 448 Kbps
Channel(s) : 2 channels
Channel positions : Front: L R
Sampling rate : 48.0 KHz
Compression mode : Lossy
Stream size : 485 MiB (14%)
Language : Russian
Default : Yes
Forced : No
Menu
00:00:00.000 : :chapter 01
00:09:50.000 : :chapter 02
00:20:53.000 : :chapter 03
00:31:47.000 : :chapter 04
00:42:01.000 : :chapter 05
00:51:54.000 : :chapter 06
01:00:48.000 : :chapter 07
01:13:21.000 : :chapter 08
01:22:31.000 : :chapter 09
01:33:18.000 : :chapter 10
01:40:54.000 : :chapter 11
01:52:36.000 : :chapter 12
02:01:16.000 : :chapter 13
02:11:34.000 : :chapter 14
02:26:12.000 : :chapter 15




Релиз от:



   Похожие торренты   Торрент   Размер 
В этой теме нет новых непрочитанных сообщений. Туман / The Fog (2005) DVDRip от ExKinoRay

114 | 91

1.37 ГБ

В этой теме нет новых непрочитанных сообщений. Туман (2010) DVDRip-AVC

141 | 14

2.63 ГБ

В этой теме нет новых непрочитанных сообщений. Туман (2010) DVDRip | КПК от Generalfilm

13 | 3

520.91 МБ

В этой теме нет новых непрочитанных сообщений. Туман (2010) DVDRip | Лицензия

196 | 21

702.69 МБ

В этой теме нет новых непрочитанных сообщений. Туман (2010) DVDRip от SMALL-RiP

58 | 7

1.47 ГБ

В этой теме нет новых непрочитанных сообщений. Туман (2010) DVDRip от Kinobomond

154 | 20

1.37 ГБ

В этой теме нет новых непрочитанных сообщений. Туман (2010) DVDRip от PowerTracker

30 | 6

2.19 ГБ




Вы не можете начинать темы
Вы не можете отвечать на сообщения
Вы не можете редактировать свои сообщения
Вы не можете удалять свои сообщения
Вы не можете добавлять вложения

Перейти:  
Для Мосгорсуда, Роскомнадзора и рекламодателей: mosgorsud-torrent[собачка]yandex.ru
 Вход
ppkBB3cker v.2 © 2008-2014 @ PPK
[ Time : 0.028s | 14 Queries | GZIP : Off ]

Торрент трекер RUTOR.IN, Не можете зайти на rutor.org? Какой новый адрес рутор? Какое зеркало рутор? Не работает rutor.org и зеркала? Тогда наш торрент специально для вас. Rutor.in неофициальное зеркало rutor. В случае если у Вас заблокирован rutor или вдруг Вы не можете на него зайти, то Вы без труда сможете скачать бесплатно и без рекламы последние новинки кино, игр, сериалов и прочего у нас, на Rutor.in. Не нужно использовать прокси, чтобы зайти на рутор, достаточно воспользоваться нашим ресурсом. Все новые фильмы, игры, сериалы, книги и музыка за 2013 и 2014 годы через торрент бесплатно. Скачивайте фильмы в хорошем качестве, игры для пк, xbox, playstation без регистрации. У нас вы найдете новые Зарубежные сериалы и Русские сериалы 2013, 2014, 2015 годов. Оставайтесь с нами, качайте любимые фильмы, игры, сериалы, книги и музыку.