img image001 image001 image001 image001 image001 image001 image001 image001 image001 image001 image001 image001 image001 image001 image001

Planets Sun Sun Sun
Статистика раздачи
Автор: Nickolas3434 | Размер: 4.35 ГБ | Добавлен: 27 июл 2015
Раздают: 427    Качают: 66
Скачать торрент
Скачать торрент
Описание торрента

СообщениеДобавлено: 27 июл 2015 


Информация о фильме
Название: Место встречи изменить нельзя
Год выхода: 1979
Жанр: боевик, криминал, детектив, приключения
Режиссер: Станислав Говорухин
В ролях: Владимир Высоцкий, Евгений Евстигнеев, Владимир Конкин, Армен Джигарханян, Александр Белявский, Зиновий Гердт, Иван Бортник, Андрей Градов, Екатерина Градова, Наталья Данилова, Всеволод Абдулов, Евгений Леонов-Гладышев, Лев Перфилов, Станислав Садальский, Евгений Шутов, Лариса Удовиченко, Сергей Юрский, Наталья Фатеева, Виктор Павлов, Леонид Куравлев, Александр Абдулов, Светлана Светличная, Наталья Крачковская, Валерия Заклунная
О фильме: Убийства, засады, погони, перестрелки — на фоне послевоенной Москвы. Сотрудники МУРа против таинственной и неуловимой банды «Черная кошка». Демобилизовавшийся офицер разведки Володя Шарапов начинает работать в отделе по борьбе с бандитизмом. Одно из первых дел, в расследовании которых он участвует, — убийство Ларисы Груздевой…
Страна: СССР
Продолжительность: 5 x ~ 01:15:00
Перевод: Не требуется
Файл
Кодек: XviD
Качество: DVDRip
Видео: XviD, 704x544 (1.29:4), 25 fps, ~ 1300 kbps
Звук: AC3, 48 kHz, 3/2 (L,C,R,l,r) + LFE ch, ~384.00 kbps
Общее
Полное имя : Mesto.vstrechi.izmenitj.neljzja.1979.XviD.DVDRip.by.GeneralFilmserija.01.avi
Формат : AVI
Формат/Информация : Audio Video Interleave
Размер файла : 890 Мбайт
Продолжительность : 1 ч. 6 м.
Общий поток : 1865 Кбит/сек
Программа кодирования : VirtualDubMod 1.5.10.3 | www.virtualdub-fr.org || (build 2550/release)
Библиотека кодирования : VirtualDubMod build 2550/release
Видео
Идентификатор : 0
Формат : MPEG-4 Visual
Профиль формата : Advanced Simple@L5
Параметр BVOP формата : 1
Параметр QPel формата : Нет
Параметр GMC формата : Без точки перехода
Параметр матрицы формата : Выборочная
Идентификатор кодека : XVID
Идентификатор кодека/Подсказка : XviD
Продолжительность : 1 ч. 6 м.
Битрейт : 1471 Кбит/сек
Ширина : 704 пикселя
Высота : 544 пикселя
Соотношение сторон : 1,294
Частота кадров : 25,000 кадров/сек
Цветовое пространство : YUV
Субдискретизация насыщенности : 4:2:0
Битовая глубина : 8 бит
Тип развёртки : Прогрессивная
Метод сжатия : С потерями
Бит/(Пиксели*Кадры) : 0.154
Размер потока : 702 Мбайт (79%)
Библиотека кодирования : XviD 73
Аудио
Идентификатор : 1
Формат : AC-3
Формат/Информация : Audio Coding 3
Расширение режима : CM (complete main)
Параметр Endianness формата : Big
Идентификатор кодека : 2000
Продолжительность : 1 ч. 6 м.
Вид битрейта : Постоянный
Битрейт : 384 Кбит/сек
Каналы : 6 каналов
Расположение каналов : Front: L C R, Side: L R, LFE
Частота : 48,0 КГц
Метод сжатия : С потерями
Размер потока : 183 Мбайт (21%)
Выравнивание : Разделение по промежуткам
Продолжительность промежутка : 40 мс. (1,00 видеокадр)
Время предзагрузки промежутка : 500 мс.
















Релиз от:



   Похожие торренты   Торрент   Размер 
В этой теме нет новых непрочитанных сообщений. Место встречи изменить нельзя [01-05 из 05] (1979) BDRip от GeneralFilm

236 | 13

5.7 ГБ

В этой теме нет новых непрочитанных сообщений. Место встречи изменить нельзя (1979) DVDRip-AVC

148 | 13

7.31 ГБ

В этой теме нет новых непрочитанных сообщений. Место встречи изменить нельзя (1979) DVDRip-AVC

359 | 31

6.3 ГБ

В этой теме нет новых непрочитанных сообщений. Место встречи изменить нельзя (1979) DVDRip

362 | 16

4.36 ГБ

В этой теме нет новых непрочитанных сообщений. Место встречи изменить нельзя (1979) DVDRip-AVC от ExKinoRay

656 | 78

7.2 ГБ

В этой теме нет новых непрочитанных сообщений. Место встречи изменить нельзя (1979) DVD9

4 | 3

15.51 ГБ

В этой теме нет новых непрочитанных сообщений. Место встречи изменить нельзя (1979) Blu-ray 1080p

16 | 21

42.45 ГБ




Вы не можете начинать темы
Вы не можете отвечать на сообщения
Вы не можете редактировать свои сообщения
Вы не можете удалять свои сообщения
Вы не можете добавлять вложения

Перейти:  
Для Мосгорсуда, Роскомнадзора и рекламодателей: mosgorsud-torrent[собачка]yandex.ru
 Вход
ppkBB3cker v.2 © 2008-2014 @ PPK
[ Time : 0.055s | 14 Queries | GZIP : Off ]

Торрент трекер RUTOR.IN, Не можете зайти на rutor.org? Какой новый адрес рутор? Какое зеркало рутор? Не работает rutor.org и зеркала? Тогда наш торрент специально для вас. Rutor.in неофициальное зеркало rutor. В случае если у Вас заблокирован rutor или вдруг Вы не можете на него зайти, то Вы без труда сможете скачать бесплатно и без рекламы последние новинки кино, игр, сериалов и прочего у нас, на Rutor.in. Не нужно использовать прокси, чтобы зайти на рутор, достаточно воспользоваться нашим ресурсом. Все новые фильмы, игры, сериалы, книги и музыка за 2013 и 2014 годы через торрент бесплатно. Скачивайте фильмы в хорошем качестве, игры для пк, xbox, playstation без регистрации. У нас вы найдете новые Зарубежные сериалы и Русские сериалы 2013, 2014, 2015 годов. Оставайтесь с нами, качайте любимые фильмы, игры, сериалы, книги и музыку.