img image001 image001 image001 image001 image001 image001 image001 image001 image001 image001 image001 image001 image001 image001 image001

Planets Sun Sun Sun
Статистика раздачи
Автор: Nickolas3434 | Размер: 372.45 МБ | Добавлен: 27 июл 2015
Раздают: 74    Качают: 7
Скачать торрент
Скачать торрент
Описание торрента

СообщениеДобавлено: 27 июл 2015 

Страна: СССР
Производство: Стереокино
Жанр: комедия
Год выпуска: 1948
Продолжительность: 00:22:12
Перевод: Не требуется
Cубтитры: нет
Оригинальная аудиодорожка: русский
Режиссер: Владимир Немоляев
В ролях:
Михаил Румянцев(озвучивает Эраст Гарин), Людмила Целиковская, Евгений Леонов (небольшой эпизод - дворник в начале фильма), Светлана Немоляева (видна среди зрителей в 20.07)...
Описание:
Короткометражная спортивная комедия, это один из первых наших стерео (3D) игровых фильмов. Показан матч женских команд по хоккею с мячом. Карандаш заменяет получившего травму вратаря Клаву, Людмила Целиковская играет роль Наташи - игрока одной из команд.





Источник: DVB
Качество видео: SATRip
Формат видео: AVI
Видео: 704x528 (4:3), 25 fps, XviD ~ 2145 kbps avg, 0.231 bit/pixel
Аудио: 48 kHz, Dolby Digital AC3 2.0, 192 kbps
Раздача от:
Светлана Немоляева:
«Великий клоун учил меня кататься на коньках. Мой папа, известный кинорежиссер Владимир Немоляев, был ровесником Карандаша и его другом. Поэтому неудивительно, что в цирк нас с братом водили гораздо чаще, чем в театр. Причем мы не только общались с Карандашом в гримуборной, но и играли за кулисами с его собачками. Ученики и даже учителя безумно завидовали нам и готовы были вновь и вновь слушать наши рассказы.
Когда папа снимал фильм «Карандаш на льду», мы пропадали на катке целыми днями. Помню его партнершу, невероятно обаятельную и красивую Людмилу Целиковскую, снимавшуюся в кокетливой пушистой шапочке. Но в большем восторге мы были от Карандаша... Великий клоун учил нас с братом кататься на коньках, и мы носились по льду, держась за полы его пиджака. Жаль, что этот фильм крайне редко показывают по телевидению».

Общее
Полное имя : Karandash.na.ldu.1948.SATRip_[New-team]_by_AVP_Studio.avi
Формат : AVI
Формат/Информация : Audio Video Interleave
Размер файла : 372 Мбайт
Продолжительность : 22 м.
Общий поток : 2346 Кбит/сек
Программа кодирования : VirtualDubMod 1.5.10.3 | www.virtualdub-fr.org || (build 2550/release)
Библиотека кодирования : VirtualDubMod build 2550/release
Видео
Идентификатор : 0
Формат : MPEG-4 Visual
Профиль формата : Advanced Simple@L5
Параметр BVOP формата : 1
Параметр QPel формата : Нет
Параметр GMC формата : Без точки перехода
Параметр матрицы формата : Выборочная
Идентификатор кодека : XVID
Идентификатор кодека/Подсказка : XviD
Продолжительность : 22 м.
Битрейт : 2145 Кбит/сек
Ширина : 704 пикселя
Высота : 528 пикселей
Соотношение сторон : 4:3
Частота кадров : 25,000 кадров/сек
Цветовое пространство : YUV
Субдискретизация насыщенности : 4:2:0
Битовая глубина : 8 бит
Тип развёртки : Прогрессивная
Метод сжатия : С потерями
Бит/(Пиксели*Кадры) : 0.231
Размер потока : 340 Мбайт (91%)
Библиотека кодирования : XviD 73
Аудио
Идентификатор : 1
Формат : AC-3
Формат/Информация : Audio Coding 3
Расширение режима : CM (complete main)
Параметр Endianness формата : Big
Идентификатор кодека : 2000
Продолжительность : 22 м.
Вид битрейта : Постоянный
Битрейт : 192 Кбит/сек
Каналы : 2 канала
Расположение каналов : Front: L R
Частота : 48,0 КГц
Метод сжатия : С потерями
Размер потока : 30,5 Мбайт (8%)
Выравнивание : Разделение по промежуткам
Продолжительность промежутка : 40 мс. (1,00 видеокадр)
Время предзагрузки промежутка : 500 мс





   Похожие торренты   Торрент   Размер 
В этой теме нет новых непрочитанных сообщений. Карандаш на льду (1948) SATRip-AVC от New-Team

135 | 8

372.13 МБ

В этой теме нет новых непрочитанных сообщений. Страницы жизни (1948) SATRip от New-Team

9 | 9

1.09 ГБ

В этой теме нет новых непрочитанных сообщений. Страницы жизни (1948) SATRip от New-Team

8 | 7

745.71 МБ

В этой теме нет новых непрочитанных сообщений. Страницы жизни (1948) SATRip-AVC от New-Team

22 | 3

1.09 ГБ

В этой теме нет новых непрочитанных сообщений. Первоклассница (1948) DVDRip-AVC от New-Team

61 | 7

1.09 ГБ

В этой теме нет новых непрочитанных сообщений. Первоклассница (1948) DVDRip от New-Team

12 | 3

1.09 ГБ

В этой теме нет новых непрочитанных сообщений. Мичурин (1948) DVDRip-AVC от New-Team

46 | 6

1.46 ГБ




Вы не можете начинать темы
Вы не можете отвечать на сообщения
Вы не можете редактировать свои сообщения
Вы не можете удалять свои сообщения
Вы не можете добавлять вложения

Перейти:  
Для Мосгорсуда, Роскомнадзора и рекламодателей: mosgorsud-torrent[собачка]yandex.ru
 Вход
ppkBB3cker v.2 © 2008-2014 @ PPK
[ Time : 0.035s | 16 Queries | GZIP : On ]

Торрент трекер RUTOR.IN, Не можете зайти на rutor.org? Какой новый адрес рутор? Какое зеркало рутор? Не работает rutor.org и зеркала? Тогда наш торрент специально для вас. Rutor.in неофициальное зеркало rutor. В случае если у Вас заблокирован rutor или вдруг Вы не можете на него зайти, то Вы без труда сможете скачать бесплатно и без рекламы последние новинки кино, игр, сериалов и прочего у нас, на Rutor.in. Не нужно использовать прокси, чтобы зайти на рутор, достаточно воспользоваться нашим ресурсом. Все новые фильмы, игры, сериалы, книги и музыка за 2013 и 2014 годы через торрент бесплатно. Скачивайте фильмы в хорошем качестве, игры для пк, xbox, playstation без регистрации. У нас вы найдете новые Зарубежные сериалы и Русские сериалы 2013, 2014, 2015 годов. Оставайтесь с нами, качайте любимые фильмы, игры, сериалы, книги и музыку.