img image001 image001 image001 image001 image001 image001 image001 image001 image001 image001 image001 image001 image001 image001 image001

Planets Sun Sun Sun
Статистика раздачи
Автор: Nickolas3434 | Размер: 2.87 ГБ | Добавлен: 30 июл 2015
Раздают: 196    Качают: 26
Скачать торрент
Скачать торрент
Описание торрента

СообщениеДобавлено: 30 июл 2015 


Информация о фильме
Название: Самая обаятельная и привлекательная
Год выхода: 1985
Жанр: Лирическая комедия
Режиссер: Геральд Бежанов
В ролях: Ирина Муравьёва, Татьяна Васильева, Александр Абдулов, Леонид Куравлёв, Михаил Кокшенов, Людмила Иванова, Лариса Удовиченко, Владимир Носик, Александр Ширвиндт, Лев Перфилов, Любовь Соколова, Вероника Изотова, Виктор Ильичёв, Гурам Абесадзе, Виктор Филиппов, Людмила Карауш, Георгий Мартиросян, Владимир Мышкин, Яков Саркисов, Вера Сотникова, Игорь Ясулович, Екатерина Куравлева, Геральд Бежанов, Анатолий Эйрамджан
О фильме: Инженер Надя Клюева работала в конструкторском бюро и была активной комсомолкой: собирала деньги на похороны тещи сотрудника по заданию месткома , как член добровольной народной дружины, ходила патрулировать порядок на улицах в свободное от работы время, дотошно снимала показания с испытываемого прибора. Единственное, что как будто не интересовало Надю – это ее личная жизнь. Природа не наградила ее яркой внешностью, она давно привыкла к тому, что мужчины считают ее « своим парнем » и не воспринимают как женщину, одевалась чисто, опрятно, но не модно... И так бы наверное все и продолжалось, если бы она не встретила случайно свою школьную подругу Сусанну. Сусанна в школе тоже не была красавицей, но сейчас перед Надей была женщина, блистательная во всех отношениях. « Наука мне помогла, социология », - объяснила Сусанна подруге перемены в своем облике и взялась сделать из Нади такую же «самую обаятельную и привлекательную» женщину...
Страна: СССР, Мосфильм
Продолжительность: 01:18:19
Перевод: не требуется
Файл
Кодек: MKV
Качество: HDTVRip 720p
Видео: MPEG-4, 5050 Кбит/с, 1280x548
Звук: AC3, 2 ch, 192 Кбит/с




raw [info]: 1280x548p 1:1 @ 25/1 fps (cfr)
x264 [info]: using SAR=1/1
x264 [info]: using cpu capabilities: MMX2 SSE2Fast SSSE3 SSE4.2 AVX
x264 [info]: profile High, level 4.1
x264 [info]: frame I:44 Avg QP:15.31 size:126074
x264 [info]: frame P:598 Avg QP:18.20 size: 54937
x264 [info]: frame B:1883 Avg QP:19.69 size: 13467
x264 [info]: consecutive B-frames: 1.8% 3.0% 7.8% 21.5% 26.0% 37.8% 1.9% 0.2%
===========================================================================================================
Общее
Уникальный идентификатор : 251896818242102026526360567045165978685 (0xBD819000F8DCA152B836B77DB68C943D)
Полное имя : D:Самая обаятельная и привлекательная_1985-HDTVRip-720p.mkv
Формат : Matroska
Версия формата : Version 2
Размер файла : 2,87 Гбайт
Продолжительность : 1 ч. 18 м.
Общий поток : 5244 Кбит/сек
Дата кодирования : UTC 2015-07-27 00:35:45
Программа кодирования : mkvmerge v5.8.0 ('No Sleep / Pillow') built on Sep 2 2012 15:37:04
Библиотека кодирования : libebml v1.2.3 + libmatroska v1.3.0
Видео
Идентификатор : 1
Формат : AVC
Формат/Информация : Advanced Video Codec
Профиль формата : High@L4.1
Параметр CABAC формата : Да
Параметр ReFrames формата : 11 кадров
Идентификатор кодека : V_MPEG4/ISO/AVC
Продолжительность : 1 ч. 18 м.
Битрейт : 5050 Кбит/сек
Ширина : 1280 пикселей
Высота : 548 пикселей
Соотношение сторон : 2,35:1
Режим частоты кадров : Постоянный
Частота кадров : 25,000 кадров/сек
Цветовое пространство : YUV
Субдискретизация насыщенности : 4:2:0
Битовая глубина : 8 бит
Тип развёртки : Прогрессивная
Бит/(Пиксели*Кадры) : 0.288
Размер потока : 2,71 Гбайт (94%)
Библиотека кодирования : x264 core 146 r2538 121396c
Настройки программы : cabac=1 / ref=11 / deblock=1:-3:-2 / analyse=0x3:0x113 / me=umh / subme=10 / psy=1 / psy_rd=1.05:0.08 / mixed_ref=1 / me_range=32 / chroma_me=1 / trellis=2 / 8x8dct=1 / cqm=0 / deadzone=21,11 / fast_pskip=0 / chroma_qp_offset=-3 / threads=12 / lookahead_threads=2 / sliced_threads=0 / nr=0 / decimate=0 / interlaced=0 / bluray_compat=0 / constrained_intra=0 / bframes=7 / b_pyramid=2 / b_adapt=2 / b_bias=0 / direct=3 / weightb=1 / open_gop=0 / weightp=2 / keyint=250 / keyint_min=25 / scenecut=40 / intra_refresh=0 / rc_lookahead=40 / rc=2pass / mbtree=0 / bitrate=5050 / ratetol=1.0 / qcomp=0.65 / qpmin=0 / qpmax=69 / qpstep=4 / cplxblur=20.0 / qblur=0.5 / vbv_maxrate=50000 / vbv_bufsize=62500 / nal_hrd=none / filler=0 / ip_ratio=1.40 / pb_ratio=1.30 / aq=1:1.00
Язык : English
Default : Да
Forced : Нет
Цветовой диапазон : Limited
Основные цвета : BT.709
Характеристики трансфера : BT.709
Коэффициенты матрицы : BT.709
Аудио
Идентификатор : 2
Формат : AC-3
Формат/Информация : Audio Coding 3
Расширение режима : CM (complete main)
Параметр Endianness формата : Big
Идентификатор кодека : A_AC3
Продолжительность : 1 ч. 18 м.
Вид битрейта : Постоянный
Битрейт : 192 Кбит/сек
Каналы : 2 канала
Расположение каналов : Front: L R
Частота : 48,0 КГц
Битовая глубина : 16 бит
Метод сжатия : С потерями
Размер потока : 108 Мбайт (4%)
Язык : Russian
Default : Да
Forced : Нет

Релиз от:
Автор релиза:



   Похожие торренты   Торрент   Размер 
В этой теме нет новых непрочитанных сообщений. Самая обаятельная и привлекательная (1985) HDTVRip 720р

49 | 8

2.76 ГБ

В этой теме нет новых непрочитанных сообщений. Самая обаятельная и привлекательная (1985) HDTVRip

93 | 14

1.37 ГБ

В этой теме нет новых непрочитанных сообщений. Самая обаятельная и привлекательная (1985) HDTVRip от Шкипер

97 | 46

744.19 МБ

В этой теме нет новых непрочитанных сообщений. Самая обаятельная и привлекательная (1985) DVDRip

82 | 24

746.03 МБ

В этой теме нет новых непрочитанных сообщений. Самая обаятельная и привлекательная (1985) DVDRip

127 | 5

1.37 ГБ

В этой теме нет новых непрочитанных сообщений. Самая обаятельная и привлекательная (1985) HDTV (1080i)

104 | 18

6.5 ГБ

В этой теме нет новых непрочитанных сообщений. Самая обаятельная и привлекательная (1985) DVDRip | Реставрация

2122 | 67

1.45 ГБ




Вы не можете начинать темы
Вы не можете отвечать на сообщения
Вы не можете редактировать свои сообщения
Вы не можете удалять свои сообщения
Вы не можете добавлять вложения

Перейти:  
Для Мосгорсуда, Роскомнадзора и рекламодателей: mosgorsud-torrent[собачка]yandex.ru
 Вход
ppkBB3cker v.2 © 2008-2014 @ PPK
[ Time : 1.618s | 14 Queries | GZIP : Off ]

Торрент трекер RUTOR.IN, Не можете зайти на rutor.org? Какой новый адрес рутор? Какое зеркало рутор? Не работает rutor.org и зеркала? Тогда наш торрент специально для вас. Rutor.in неофициальное зеркало rutor. В случае если у Вас заблокирован rutor или вдруг Вы не можете на него зайти, то Вы без труда сможете скачать бесплатно и без рекламы последние новинки кино, игр, сериалов и прочего у нас, на Rutor.in. Не нужно использовать прокси, чтобы зайти на рутор, достаточно воспользоваться нашим ресурсом. Все новые фильмы, игры, сериалы, книги и музыка за 2013 и 2014 годы через торрент бесплатно. Скачивайте фильмы в хорошем качестве, игры для пк, xbox, playstation без регистрации. У нас вы найдете новые Зарубежные сериалы и Русские сериалы 2013, 2014, 2015 годов. Оставайтесь с нами, качайте любимые фильмы, игры, сериалы, книги и музыку.