img image001 image001 image001 image001 image001 image001 image001 image001 image001 image001 image001 image001 image001 image001 image001

Planets Sun Sun Sun
Статистика раздачи
Автор: Nickolas3434 | Размер: 3.75 ГБ | Добавлен: 30 июл 2015
Раздают: 49    Качают: 15
Скачать торрент
Скачать торрент
Описание торрента

СообщениеДобавлено: 30 июл 2015 


Информация о фильме
Название: Кубанские казаки
Год выхода: 1949
Жанр: Музыкальный, комедия
Режиссер: Иван Пырьев
В ролях: Сергей Лукьянов, Марина Ладынина, Александр Хвыля, Владлен Давыдов, Владимир Володин, Екатерина Савинова, Андрей Петров, Владимир Дорофеев, Елена Савицкая, Валентина Телегина, Сергей Блинников, Михаил Пуговкин, Юрий Любимов, Борис Андреев, Виктор Бубнов, Сергей Ильд, Владимир Лепко, Клара Лучко, Константин Сорокин, Георгий Светлани, Елена Вольская, Александра Данилова, Елизавета Кузюрина, Виктор Ключарев, Евгений Зосимов, Зоя Толбузина
О фильме: На осенней межколхозной ярмарке лихой коневод Николай сватается к передовой колхознице Даше Шелест. Влюбленным, работающим в разных хозяйствах, предстоит преодолеть сопротивление своих руководителей, не желающих лишаться отличных работников. Председатель колхоза "Красный партизан", где живёт Даша, Гордей Ворон давно любит председателя колхоза "Заветы Ильича", где живёт Николай, Галину Пересветову, но никак не может признаться ей в своих чувствах. Приходится Галине объясниться первой. Обе пары начинают готовиться к свадьбе….
Страна: СССР, Мосфильм
Продолжительность: 01:44:22
Перевод: не требуется
Файл
Кодек: MKV
Качество: DVDRip-AVC
Видео: MPEG-4 AVC, 4950 Кбит/с, 894x648
Звук: AC3, 2 ch, 192 Кбит/с

raw [info]: 894x648p 1:1 @ 25/1 fps (cfr)
x264 [info]: using SAR=1/1
x264 [info]: using cpu capabilities: MMX2 SSE2Fast SSSE3 SSE4.2 AVX
x264 [info]: profile High, level 4.1
x264 [info]: frame I:872 Avg QP:15.75 size:123416
x264 [info]: frame P:39942 Avg QP:18.26 size: 50611
x264 [info]: frame B:115736 Avg QP:20.06 size: 15082
=====================================================================================================
Общее
Уникальный идентификатор : 230873834245611455159680561040237872840 (0xADB0AEDDFF570FC0BCD472FC7BD546C8)
Полное имя : D:Кубанские казаки_1949-HDTVRip-AVC.mkv
Формат : Matroska
Версия формата : Version 2
Размер файла : 3,75 Гбайт
Продолжительность : 1 ч. 44 м.
Общий поток : 5144 Кбит/сек
Дата кодирования : UTC 2015-07-25 16:54:42
Программа кодирования : mkvmerge v5.8.0 ('No Sleep / Pillow') built on Sep 2 2012 15:37:04
Библиотека кодирования : libebml v1.2.3 + libmatroska v1.3.0
Видео
Идентификатор : 1
Формат : AVC
Формат/Информация : Advanced Video Codec
Профиль формата : High@L4.1
Параметр CABAC формата : Да
Параметр ReFrames формата : 14 кадров
Идентификатор кодека : V_MPEG4/ISO/AVC
Продолжительность : 1 ч. 44 м.
Битрейт : 4950 Кбит/сек
Ширина : 894 пикселя
Высота : 648 пикселей
Соотношение сторон : 1,380
Режим частоты кадров : Постоянный
Частота кадров : 25,000 кадров/сек
Цветовое пространство : YUV
Субдискретизация насыщенности : 4:2:0
Битовая глубина : 8 бит
Тип развёртки : Прогрессивная
Бит/(Пиксели*Кадры) : 0.342
Размер потока : 3,54 Гбайт (94%)
Библиотека кодирования : x264 core 146 r2538 121396c
Настройки программы : cabac=1 / ref=14 / deblock=1:-2:-2 / analyse=0x3:0x113 / me=umh / subme=10 / psy=1 / psy_rd=1.05:0.10 / mixed_ref=1 / me_range=32 / chroma_me=1 / trellis=2 / 8x8dct=1 / cqm=0 / deadzone=21,11 / fast_pskip=0 / chroma_qp_offset=-3 / threads=12 / lookahead_threads=2 / sliced_threads=0 / nr=0 / decimate=0 / interlaced=0 / bluray_compat=0 / constrained_intra=0 / bframes=8 / b_pyramid=2 / b_adapt=2 / b_bias=0 / direct=3 / weightb=1 / open_gop=0 / weightp=2 / keyint=250 / keyint_min=25 / scenecut=40 / intra_refresh=0 / rc_lookahead=40 / rc=2pass / mbtree=0 / bitrate=4950 / ratetol=1.0 / qcomp=0.60 / qpmin=0 / qpmax=69 / qpstep=4 / cplxblur=20.0 / qblur=0.5 / vbv_maxrate=50000 / vbv_bufsize=62500 / nal_hrd=none / filler=0 / ip_ratio=1.40 / pb_ratio=1.30 / aq=1:1.00
Язык : English
Default : Да
Forced : Нет
Цветовой диапазон : Limited
Основные цвета : BT.709
Характеристики трансфера : BT.709
Коэффициенты матрицы : BT.709
Аудио
Идентификатор : 2
Формат : AC-3
Формат/Информация : Audio Coding 3
Расширение режима : CM (complete main)
Параметр Endianness формата : Big
Идентификатор кодека : A_AC3
Продолжительность : 1 ч. 44 м.
Вид битрейта : Постоянный
Битрейт : 192 Кбит/сек
Каналы : 2 канала
Расположение каналов : Front: L R
Частота : 48,0 КГц
Битовая глубина : 16 бит
Метод сжатия : С потерями
Размер потока : 143 Мбайт (4%)
Язык : Russian
Default : Да
Forced : Нет

Релиз от:
Автор релиза:



   Похожие торренты   Торрент   Размер 
В этой теме нет новых непрочитанных сообщений. Кубанские казаки (1949) HDTVRip

161 | 39

1.37 ГБ

В этой теме нет новых непрочитанных сообщений. Кубанские казаки (1949) HDTVRip от New-Team

138 | 17

1.46 ГБ

В этой теме нет новых непрочитанных сообщений. Кубанские казаки (1949) HDTVRip от New-Team

54 | 20

745.36 МБ

В этой теме нет новых непрочитанных сообщений. Кубанские казаки (1949) HDTVRip-AVC от New-Team

196 | 33

1.46 ГБ

В этой теме нет новых непрочитанных сообщений. Кубанские казаки (1949) DVDRip от KinoZalSat

269 | 20

1.37 ГБ

В этой теме нет новых непрочитанных сообщений. Кубанские казаки (1949) HDTV 1080i от kuzmichm2196

99 | 216

11.97 ГБ

В этой теме нет новых непрочитанных сообщений. Звезда (1949) DVDRip-AVC от ExKinoRay

166 | 7

1.64 ГБ




Вы не можете начинать темы
Вы не можете отвечать на сообщения
Вы не можете редактировать свои сообщения
Вы не можете удалять свои сообщения
Вы не можете добавлять вложения

Перейти:  
Для Мосгорсуда, Роскомнадзора и рекламодателей: mosgorsud-torrent[собачка]yandex.ru
 Вход
ppkBB3cker v.2 © 2008-2014 @ PPK
[ Time : 0.016s | 16 Queries | GZIP : On ]

Торрент трекер RUTOR.IN, Не можете зайти на rutor.org? Какой новый адрес рутор? Какое зеркало рутор? Не работает rutor.org и зеркала? Тогда наш торрент специально для вас. Rutor.in неофициальное зеркало rutor. В случае если у Вас заблокирован rutor или вдруг Вы не можете на него зайти, то Вы без труда сможете скачать бесплатно и без рекламы последние новинки кино, игр, сериалов и прочего у нас, на Rutor.in. Не нужно использовать прокси, чтобы зайти на рутор, достаточно воспользоваться нашим ресурсом. Все новые фильмы, игры, сериалы, книги и музыка за 2013 и 2014 годы через торрент бесплатно. Скачивайте фильмы в хорошем качестве, игры для пк, xbox, playstation без регистрации. У нас вы найдете новые Зарубежные сериалы и Русские сериалы 2013, 2014, 2015 годов. Оставайтесь с нами, качайте любимые фильмы, игры, сериалы, книги и музыку.