img image001 image001 image001 image001 image001 image001 image001 image001 image001 image001 image001 image001 image001 image001 image001

Planets Sun Sun Sun
Статистика раздачи
Автор: Nickolas3434 | Размер: 1.79 ГБ | Добавлен: 29 июл 2015
Раздают: 138    Качают: 9
Скачать торрент
Скачать торрент
Описание торрента

СообщениеДобавлено: 29 июл 2015 

Информация о фильме
Русское название: Елена
Год выпуска: 2011
Жанр: драма, мелодрама
Выпущено: Россия
Режиссер: Андрей Звягинцев
В ролях: Надежда Маркина , Андрей Смирнов , Василий Мичков , Игорь Огурцов , Юрий Борисов , Рустам Ахмадеев , Оксана Семенова , Евгения Шевченко , Анна Гуляренко , Елена Лядова , Алексей Розин , Алексей Маслодудов
Перевод: Оригинальный
Сюжет фильма:
История пожилой семейной пары Елены и Владимира. Богатый и скупой Владимир относится к Елене скорее как к служанке, чем к жене. У обоих есть дети от первого брака: у Елены - сын, у Владимира - дочь...

Файл
Качество: HDRip-AVC
Формат: AVC (библиотека кодирования x.264)
Контейнер (Расширение): MKV
Видео: 1024x436, ~2000 Кбит/сек, 24 кадр/сек
Аудио: русский / AC3 / 5.1 / 48 kHz / 384 kbps /
Субтитры: Нет
Навигация по главам(Чаптеры): есть
Продолжительность: 01:49:10


General
Unique ID : 109120288052293898985927875805438717684 (0x5217CD935FE34B679F5EA9D764DEAEF4)
Complete name : D:Елена.(2011).HDRRIP-AVC.[-=DoMiNo=-].mkv
Format : Matroska
Format version : Version 4 / Version 2
File size : 1.79 GiB
Duration : 1h 49mn
Overall bit rate : 2 353 Kbps
Writing application : XviD4PSP 7.0.157
Writing library : Lavf56.25.101
ENCODING_INFO : MATROSKA,WEBM > MKV / H264 > X264 CRF 17,0 Custom / AC3 > AC3 CBR 384kbps
Video
ID : 1
Format : AVC
Format/Info : Advanced Video Codec
Format profile : High@L4.1
Format settings, CABAC : Yes
Format settings, ReFrames : 12 frames
Codec ID : V_MPEG4/ISO/AVC
Duration : 1h 49mn
Bit rate : 1 922 Kbps
Width : 1 024 pixels
Height : 436 pixels
Display aspect ratio : 2.35:1
Original display aspect rat : 2.35:1
Frame rate mode : Constant
Frame rate : 24.000 fps
Color space : YUV
Chroma subsampling : 4:2:0
Bit depth : 8 bits
Scan type : Progressive
Bits/(Pixel*Frame) : 0.179
Stream size : 1.47 GiB (82%)
Writing library : x264 core 146 r2538M 121396c
Encoding settings : cabac=1 / ref=12 / deblock=1:-3:-3 / analyse=0x3:0x133 / me=umh / subme=10 / psy=1 / psy_rd=1,00:0,10 / mixed_ref=1 / me_range=32 / chroma_me=1 / trellis=2 / 8x8dct=1 / cqm=0 / deadzone=21,11 / fast_pskip=0 / chroma_qp_offset=-3 / threads=6 / lookahead_threads=1 / sliced_threads=0 / nr=0 / decimate=1 / interlaced=0 / bluray_compat=0 / constrained_intra=0 / bframes=11 / b_pyramid=2 / b_adapt=2 / b_bias=0 / direct=1 / weightb=1 / open_gop=0 / weightp=2 / keyint=240 / keyint_min=24 / scenecut=40 / intra_refresh=0 / rc=crf / mbtree=0 / crf=17,0 / qcomp=0,60 / qpmin=17 / qpmax=69 / qpstep=4 / ip_ratio=1,40 / pb_ratio=1,30 / aq=1:1,00
Language : English
Default : Yes
Forced : No
Audio
ID : 2
Format : AC-3
Format/Info : Audio Coding 3
Mode extension : CM (complete main)
Format settings, Endianness : Big
Codec ID : A_AC3
Duration : 1h 49mn
Bit rate mode : Constant
Bit rate : 384 Kbps
Channel(s) : 6 channels
Channel positions : Front: L C R, Side: L R, LFE
Sampling rate : 48.0 KHz
Bit depth : 32 bits
Compression mode : Lossy
Delay relative to video : 27ms
Stream size : 300 MiB (16%)
Title : Russian
Language : Russian
Default : Yes
Forced : No
Menu
00:00:00.000 : :00:00:00.000
00:08:47.207 : :00:08:47.208
00:11:55.042 : :00:11:55.042
00:15:54.583 : :00:15:54.583
00:23:20.208 : :00:23:20.208
00:29:57.542 : :00:29:57.542
00:34:12.667 : :00:34:12.667
00:38:57.792 : :00:38:57.792
00:45:46.500 : :00:45:46.500
00:51:51.750 : :00:51:51.750
00:55:54.375 : :00:55:54.375
01:02:50.667 : :01:02:50.667
01:08:59.832 : :01:08:59.833
01:15:45.458 : :01:15:45.458
01:19:47.458 : :01:19:47.458
01:25:36.333 : :01:25:36.333
01:30:20.500 : :01:30:20.500
01:38:35.042 : :01:38:35.042







   Похожие торренты   Торрент   Размер 
В этой теме нет новых непрочитанных сообщений. Елена (2011) HDRip от Scarabey | Лицензия

364 | 5

745.93 МБ

В этой теме нет новых непрочитанных сообщений. Елена (2011) HDRip от Scarabey | Лицензия

201 | 8

1.44 ГБ

В этой теме нет новых непрочитанных сообщений. Дмитрий Савельев и Елена Кочергина - Настоящие люди (2011) (2011) MP3

14 | 2

152.19 МБ

В этой теме нет новых непрочитанных сообщений. Елена / Kätilö (2015) HDRip | L2

134 | 12

1.45 ГБ

В этой теме нет новых непрочитанных сообщений. Елена (2011) DVDRip

47 | 3

702.6 МБ

В этой теме нет новых непрочитанных сообщений. Елена (2011) BDRip от HQCLUB

116 | 3

2 ГБ

В этой теме нет новых непрочитанных сообщений. Елена Глебова - Мечта (2011) MP3

0 | 1

93.87 МБ




Вы не можете начинать темы
Вы не можете отвечать на сообщения
Вы не можете редактировать свои сообщения
Вы не можете удалять свои сообщения
Вы не можете добавлять вложения

Перейти:  
Для Мосгорсуда, Роскомнадзора и рекламодателей: mosgorsud-torrent[собачка]yandex.ru
 Вход
ppkBB3cker v.2 © 2008-2014 @ PPK
[ Time : 0.042s | 16 Queries | GZIP : Off ]

Торрент трекер RUTOR.IN, Не можете зайти на rutor.org? Какой новый адрес рутор? Какое зеркало рутор? Не работает rutor.org и зеркала? Тогда наш торрент специально для вас. Rutor.in неофициальное зеркало rutor. В случае если у Вас заблокирован rutor или вдруг Вы не можете на него зайти, то Вы без труда сможете скачать бесплатно и без рекламы последние новинки кино, игр, сериалов и прочего у нас, на Rutor.in. Не нужно использовать прокси, чтобы зайти на рутор, достаточно воспользоваться нашим ресурсом. Все новые фильмы, игры, сериалы, книги и музыка за 2013 и 2014 годы через торрент бесплатно. Скачивайте фильмы в хорошем качестве, игры для пк, xbox, playstation без регистрации. У нас вы найдете новые Зарубежные сериалы и Русские сериалы 2013, 2014, 2015 годов. Оставайтесь с нами, качайте любимые фильмы, игры, сериалы, книги и музыку.
cron