img image001 image001 image001 image001 image001 image001 image001 image001 image001 image001 image001 image001 image001 image001 image001

Planets Sun Sun Sun
Статистика раздачи
Автор: Nickolas3434 | Размер: 745.59 МБ | Добавлен: 31 июл 2015
Раздают: 17    Качают: 2
Скачать торрент
Скачать торрент
Описание торрента

СообщениеДобавлено: 31 июл 2015 

Страна: СССР
Производство: Союздетфильм
Жанр: детский
Год выпуска: 1948
Продолжительность: 01:07:32
Перевод: Не требуется
Cубтитры: нет
Оригинальная аудиодорожка: русский
Режиссер: Илья Фрэз
В ролях:
Тамара Макарова, Кира Головко, Татьяна Барышева, Наталья Защипина, Мила Костыкова, Елена Таранова, Тамара Зихман, Игорь Ерошин, Валентина Кибардина, Елена Егорова, Степан Каюков, Георгий Милляр, Мария Яроцкая, Ростислав Плятт, Елена Максимова...
Описание:
Маруся Орлова стала первоклассницей для нее началась интересная, полная событий и переживаний жизнь. Из самолюбивой и капризной девочки под воздействием учительницы и под влиянием своих новых подружек она превращается в дисциплинированную, общительную и отзывчивую ученицу.





Источник: DVD5 R5
Качество видео: DVDRip
Формат видео: AVI
Видео: 640x480 (4:3), 25 fps, XviD ~ 1406 kbps avg, 0.183 bit/pixel
Аудио: 48 kHz, MP3 2.0, 128 kbps
Раздача от:
Общее
Полное имя : Pervoklassnitsa_1948.DVDRip-745_[New-team]_by_AVP_Studio.avi
Формат : AVI
Формат/Информация : Audio Video Interleave
Размер файла : 746 Мбайт
Продолжительность : 1 ч. 7 м.
Общий поток : 1544 Кбит/сек
Программа кодирования : VirtualDubMod 1.5.10.3 | www.virtualdub-fr.org || (build 2550/release)
Библиотека кодирования : VirtualDubMod build 2550/release
Видео
Идентификатор : 0
Формат : MPEG-4 Visual
Профиль формата : Advanced Simple@L5
Параметр BVOP формата : 1
Параметр QPel формата : Нет
Параметр GMC формата : Без точки перехода
Параметр матрицы формата : Выборочная
Идентификатор кодека : XVID
Идентификатор кодека/Подсказка : XviD
Продолжительность : 1 ч. 7 м.
Битрейт : 1406 Кбит/сек
Ширина : 640 пикселей
Высота : 480 пикселей
Соотношение сторон : 4:3
Частота кадров : 25,000 кадров/сек
Цветовое пространство : YUV
Субдискретизация насыщенности : 4:2:0
Битовая глубина : 8 бит
Тип развёртки : Прогрессивная
Метод сжатия : С потерями
Бит/(Пиксели*Кадры) : 0.183
Размер потока : 679 Мбайт (91%)
Библиотека кодирования : XviD 73
Аудио
Идентификатор : 1
Формат : MPEG Audio
Версия формата : Version 1
Профиль формата : Layer 3
Идентификатор кодека : 55
Идентификатор кодека/Подсказка : MP3
Продолжительность : 1 ч. 7 м.
Вид битрейта : Постоянный
Битрейт : 128 Кбит/сек
Каналы : 2 канала
Частота : 48,0 КГц
Метод сжатия : С потерями
Размер потока : 61,8 Мбайт (8%)
Выравнивание : Соединение по промежуткам
Продолжительность промежутка : 40 мс. (1,00 видеокадр)
Время предзагрузки промежутка : 504 мс.
Библиотека кодирования : LAME3.99r
Настройки программы : -m s -V 4 -q 2 -lowpass 17 -b 128





   Похожие торренты   Торрент   Размер 
В этой теме нет новых непрочитанных сообщений. Первоклассница (1948) DVDRip от New-Team

10 | 1

1.09 ГБ

В этой теме нет новых непрочитанных сообщений. Первоклассница (1948) DVDRip-AVC от New-Team

53 | 5

1.09 ГБ

В этой теме нет новых непрочитанных сообщений. Первоклассница (1948) DVDRip

12 | 4

1.01 ГБ

В этой теме нет новых непрочитанных сообщений. Первоклассница (1948) DVDRip от ivandubskoj

78 | 5

702.12 МБ

В этой теме нет новых непрочитанных сообщений. Первоклассница (1948) DVD5

41 | 2

2.24 ГБ

В этой теме нет новых непрочитанных сообщений. Мичурин (1948) DVDRip от New-Team

7 | 1

745.51 МБ

В этой теме нет новых непрочитанных сообщений. Мичурин (1948) DVDRip-AVC от New-Team

20 | 3

1.46 ГБ




Вы не можете начинать темы
Вы не можете отвечать на сообщения
Вы не можете редактировать свои сообщения
Вы не можете удалять свои сообщения
Вы не можете добавлять вложения

Перейти:  
Для Мосгорсуда, Роскомнадзора и рекламодателей: mosgorsud-torrent[собачка]yandex.ru
 Вход
ppkBB3cker v.2 © 2008-2014 @ PPK
[ Time : 0.042s | 16 Queries | GZIP : Off ]

cron