img image001 image001 image001 image001 image001 image001 image001 image001 image001 image001 image001 image001 image001 image001 image001

Planets Sun Sun Sun
Статистика раздачи
Автор: Nickolas3434 | Размер: 745.7 МБ | Добавлен: 31 июл 2015
Раздают: 40    Качают: 23
Скачать торрент
Скачать торрент
Описание торрента

СообщениеДобавлено: 31 июл 2015 

Страна: СССР
Производство: Ленфильм
Жанр: комедия
Год выпуска: 1948
Продолжительность: 01:27:12
Перевод: Не требуется
Cубтитры: нет
Оригинальная аудиодорожка: русский
Режиссер: Иосиф Хейфиц, Александр Зархи
В ролях:
Галина Кожакина, Борис Жуковский, Олег Жаков, Павел Кадочников, Василий Ванин, Валентина Телегина, Петр Алейников, Ростислав Плятт, Павел Оленев, Ольга Аросева, Сергей Филиппов, Людмила Шабалина, Николай Дорохин, Александр Мельников, Татьяна Пельтцер, Борис Кудряшов, Виктор Хохряков, Николай Горлов, Иван Назаров, Вера Романова, Елизавета Уварова, Елена Шатрова, Александра Тришко, Анатолий Абрамов...
Описание:
Для подготовки дипломной работы молодую журналистку направляют в район. Здесь героине предстоит самостоятельно выпустить несколько номеров газеты, познакомиться с новыми людьми, разобраться в их поступках и в самой себе…





Источник: DVB
Качество видео: SATRip
Формат видео: AVI
Видео: 640x480 (4:3), 25 fps, XviD ~ 1058 kbps avg, 0.138 bit/pixel
Аудио: 48 kHz, MP3 2.0, 128 kbps
Раздача от:
Общее
Полное имя : Dragocennye.zerna.1948.SATRip-745_[New-team]_by_AVP_Studio.avi
Формат : AVI
Формат/Информация : Audio Video Interleave
Размер файла : 746 Мбайт
Продолжительность : 1 ч. 27 м.
Общий поток : 1196 Кбит/сек
Программа кодирования : VirtualDubMod 1.5.10.3 | www.virtualdub-fr.org || (build 2550/release)
Библиотека кодирования : VirtualDubMod build 2550/release
Видео
Идентификатор : 0
Формат : MPEG-4 Visual
Профиль формата : Advanced Simple@L5
Параметр BVOP формата : 1
Параметр QPel формата : Нет
Параметр GMC формата : Без точки перехода
Параметр матрицы формата : Выборочная
Идентификатор кодека : XVID
Идентификатор кодека/Подсказка : XviD
Продолжительность : 1 ч. 27 м.
Битрейт : 1058 Кбит/сек
Ширина : 640 пикселей
Высота : 480 пикселей
Соотношение сторон : 4:3
Частота кадров : 25,000 кадров/сек
Цветовое пространство : YUV
Субдискретизация насыщенности : 4:2:0
Битовая глубина : 8 бит
Тип развёртки : Прогрессивная
Метод сжатия : С потерями
Бит/(Пиксели*Кадры) : 0.138
Размер потока : 660 Мбайт (88%)
Библиотека кодирования : XviD 73
Аудио
Идентификатор : 1
Формат : MPEG Audio
Версия формата : Version 1
Профиль формата : Layer 3
Идентификатор кодека : 55
Идентификатор кодека/Подсказка : MP3
Продолжительность : 1 ч. 27 м.
Вид битрейта : Постоянный
Битрейт : 128 Кбит/сек
Каналы : 2 канала
Частота : 48,0 КГц
Метод сжатия : С потерями
Размер потока : 79,8 Мбайт (11%)
Выравнивание : Соединение по промежуткам
Продолжительность промежутка : 40 мс. (1,00 видеокадр)
Время предзагрузки промежутка : 504 мс.
Библиотека кодирования : LAME3.99r
Настройки программы : -m s -V 4 -q 2 -lowpass 17 -b 128





   Похожие торренты   Торрент   Размер 
В этой теме нет новых непрочитанных сообщений. Драгоценные зерна (1948) DVDRip-AVC от New-Team

28 | 20

1.46 ГБ

В этой теме нет новых непрочитанных сообщений. Драгоценные зерна (1948) DVDRip от New-Team

35 | 16

1.46 ГБ

В этой теме нет новых непрочитанных сообщений. Первоклассница (1948) DVDRip от New-Team

22 | 3

745.59 МБ

В этой теме нет новых непрочитанных сообщений. Мичурин (1948) DVDRip от New-Team

15 | 10

1.46 ГБ

В этой теме нет новых непрочитанных сообщений. Первоклассница (1948) DVDRip от New-Team

12 | 3

1.09 ГБ

В этой теме нет новых непрочитанных сообщений. Мичурин (1948) DVDRip-AVC от New-Team

46 | 6

1.46 ГБ

В этой теме нет новых непрочитанных сообщений. Мичурин (1948) DVDRip от New-Team

26 | 6

745.51 МБ




Вы не можете начинать темы
Вы не можете отвечать на сообщения
Вы не можете редактировать свои сообщения
Вы не можете удалять свои сообщения
Вы не можете добавлять вложения

Перейти:  
Для Мосгорсуда, Роскомнадзора и рекламодателей: mosgorsud-torrent[собачка]yandex.ru
 Вход
ppkBB3cker v.2 © 2008-2014 @ PPK
[ Time : 0.532s | 18 Queries | GZIP : Off ]

Торрент трекер RUTOR.IN, Не можете зайти на rutor.org? Какой новый адрес рутор? Какое зеркало рутор? Не работает rutor.org и зеркала? Тогда наш торрент специально для вас. Rutor.in неофициальное зеркало rutor. В случае если у Вас заблокирован rutor или вдруг Вы не можете на него зайти, то Вы без труда сможете скачать бесплатно и без рекламы последние новинки кино, игр, сериалов и прочего у нас, на Rutor.in. Не нужно использовать прокси, чтобы зайти на рутор, достаточно воспользоваться нашим ресурсом. Все новые фильмы, игры, сериалы, книги и музыка за 2013 и 2014 годы через торрент бесплатно. Скачивайте фильмы в хорошем качестве, игры для пк, xbox, playstation без регистрации. У нас вы найдете новые Зарубежные сериалы и Русские сериалы 2013, 2014, 2015 годов. Оставайтесь с нами, качайте любимые фильмы, игры, сериалы, книги и музыку.
cron