img image001 image001 image001 image001 image001 image001 image001 image001 image001 image001 image001 image001 image001 image001 image001

Planets Sun Sun Sun
Статистика раздачи
Автор: Nickolas3434 | Размер: 2.09 ГБ | Добавлен: 31 июл 2015
Раздают: 33    Качают: 7
Скачать торрент
Скачать торрент
Описание торрента

СообщениеДобавлено: 31 июл 2015 


Информация о фильме
Название: Был месяц май
Год выхода: 1970
Жанр: ВОВ, драма
Режиссер: Марлен Хуциев
В ролях: Александр Аржиловский, Пётр Тодоровский, Сергей Шакуров, Владимир Гостюхин, Леонид Трутнев, Игорь Класс, Виктор Уральский, Виктор Лазарев, Вацлавас Бледис, Эугения Плешките, Николай Бадин, Владимир Насонов, Евгений Пушко, Георгий Трусов, Георгий Прусов
О фильме: В первые мирные дни после капитуляции Германии группа советских солдат остановилась в одной из немецких деревень в доме зажиточного крестьянина Рашке, слишком преувеличенно радовавшемуся окончанию войны. Им предстоит провести вместе несколько дней, а Рашке - очевидному соучастнику смертей многих поляков - осмыслить прожитую жизнь и постараться избежать собственной смерти.
Страна: СССР, ТО Экран
Продолжительность: 01:48:40
Перевод: не требуется
Файл
Кодек: MKV
Качество: SATRip-AVC
Видео: MPEG-4 AVC, 2500 Кбит/с, 706х572@753х572
Звук: AC3, 2 ch, 256 Кбит/с



Общее
Уникальный идентификатор : 246361450238226299525872201607629265133 (0xB9577D4A580446B7A1C5E5ED523858ED)
Полное имя : D:Был месяц май_1970-SATRip-AVC.mkv
Формат : Matroska
Версия формата : Version 2
Размер файла : 2,09 Гбайт
Продолжительность : 1 ч. 48 м.
Общий поток : 2758 Кбит/сек
Дата кодирования : UTC 2015-07-29 16:51:46
Программа кодирования : mkvmerge v5.8.0 ('No Sleep / Pillow') built on Sep 2 2012 15:37:04
Библиотека кодирования : libebml v1.2.3 + libmatroska v1.3.0
Видео
Идентификатор : 1
Формат : AVC
Формат/Информация : Advanced Video Codec
Профиль формата : High@L4.1
Параметр CABAC формата : Да
Параметр ReFrames формата : 15 кадров
Идентификатор кодека : V_MPEG4/ISO/AVC
Продолжительность : 1 ч. 48 м.
Битрейт : 2500 Кбит/сек
Ширина : 706 пикселей
Высота : 572 пикселя
Соотношение сторон : 4:3
Соотношение сторон в оригинале : 4:3
Режим частоты кадров : Постоянный
Частота кадров : 25,000 кадров/сек
Цветовое пространство : YUV
Субдискретизация насыщенности : 4:2:0
Битовая глубина : 8 бит
Тип развёртки : Прогрессивная
Бит/(Пиксели*Кадры) : 0.248
Размер потока : 1,86 Гбайт (89%)
Библиотека кодирования : x264 core 146 r2538 121396c
Настройки программы : cabac=1 / ref=15 / deblock=1:-2:-2 / analyse=0x3:0x133 / me=umh / subme=10 / psy=1 / psy_rd=1.05:0.17 / mixed_ref=1 / me_range=32 / chroma_me=1 / trellis=2 / 8x8dct=1 / cqm=0 / deadzone=21,11 / fast_pskip=0 / chroma_qp_offset=-3 / threads=12 / lookahead_threads=3 / sliced_threads=0 / nr=0 / decimate=0 / interlaced=0 / bluray_compat=0 / constrained_intra=0 / bframes=10 / b_pyramid=2 / b_adapt=2 / b_bias=0 / direct=3 / weightb=1 / open_gop=0 / weightp=2 / keyint=250 / keyint_min=25 / scenecut=40 / intra_refresh=0 / rc=2pass / mbtree=0 / bitrate=2500 / ratetol=1.0 / qcomp=0.65 / qpmin=0 / qpmax=69 / qpstep=4 / cplxblur=20.0 / qblur=0.5 / ip_ratio=1.40 / pb_ratio=1.30 / aq=1:1.00
Язык : English
Default : Да
Forced : Нет
Цветовой диапазон : Limited
Основные цвета : BT.601 PAL
Характеристики трансфера : BT.470 System B, BT.470 System G
Коэффициенты матрицы : BT.601
Аудио
Идентификатор : 2
Формат : AC-3
Формат/Информация : Audio Coding 3
Расширение режима : CM (complete main)
Параметр Endianness формата : Big
Идентификатор кодека : A_AC3
Продолжительность : 1 ч. 48 м.
Вид битрейта : Постоянный
Битрейт : 256 Кбит/сек
Каналы : 2 канала
Расположение каналов : Front: L R
Частота : 48,0 КГц
Битовая глубина : 16 бит
Метод сжатия : С потерями
Размер потока : 199 Мбайт (9%)
Язык : Russian
Default : Да
Forced : Нет

Видео сравнение с исходником: http://multi-up.com/1060486
Релиз от:
Автор релиза:



   Похожие торренты   Торрент   Размер 
В этой теме нет новых непрочитанных сообщений. Был месяц май (1970) TVRip

10 | 2

1.42 ГБ

В этой теме нет новых непрочитанных сообщений. Был месяц май (1970) DVDRip от New-Team

152 | 12

1.46 ГБ

В этой теме нет новых непрочитанных сообщений. Был месяц май (1970) DVDRip-AVC от New-Team

66 | 7

1.46 ГБ

В этой теме нет новых непрочитанных сообщений. Был месяц май (1970) DVDRip от New-Team

7 | 3

744.16 МБ

В этой теме нет новых непрочитанных сообщений. Кража (1970) SATRip-AVC от ExKinoRay

107 | 21

2.24 ГБ

В этой теме нет новых непрочитанных сообщений. Вас вызывает Таймыр (1970) SATRip-AVC от ExKinoRay

73 | 33

1.45 ГБ

В этой теме нет новых непрочитанных сообщений. Медовый месяц Камиллы / Camille (2007) HDRip (AVC) от ExKinoRay

27 | 10

2.48 ГБ




Вы не можете начинать темы
Вы не можете отвечать на сообщения
Вы не можете редактировать свои сообщения
Вы не можете удалять свои сообщения
Вы не можете добавлять вложения

Перейти:  
Для Мосгорсуда, Роскомнадзора и рекламодателей: mosgorsud-torrent[собачка]yandex.ru
 Вход
ppkBB3cker v.2 © 2008-2014 @ PPK
[ Time : 0.070s | 17 Queries | GZIP : Off ]

Торрент трекер RUTOR.IN, Не можете зайти на rutor.org? Какой новый адрес рутор? Какое зеркало рутор? Не работает rutor.org и зеркала? Тогда наш торрент специально для вас. Rutor.in неофициальное зеркало rutor. В случае если у Вас заблокирован rutor или вдруг Вы не можете на него зайти, то Вы без труда сможете скачать бесплатно и без рекламы последние новинки кино, игр, сериалов и прочего у нас, на Rutor.in. Не нужно использовать прокси, чтобы зайти на рутор, достаточно воспользоваться нашим ресурсом. Все новые фильмы, игры, сериалы, книги и музыка за 2013 и 2014 годы через торрент бесплатно. Скачивайте фильмы в хорошем качестве, игры для пк, xbox, playstation без регистрации. У нас вы найдете новые Зарубежные сериалы и Русские сериалы 2013, 2014, 2015 годов. Оставайтесь с нами, качайте любимые фильмы, игры, сериалы, книги и музыку.
cron